Статистика раздачи
Размер:  702 MB   |    Зарегистрирован:  3 месяца 6 дней   |    Скачан:  0 раз

Полного источника не было: Никогда

 
   
 
 

lopster ®

Пол:
Не указан
Стаж:
3 месяца 6 дней
Сообщений:
612

Московский жиголо
Год выпуска: 2008
Жанр: Драма
Продолжительность: 01:37:20
Режиссер: Дмитрий Фикс
В ролях: Сергей Горобченко, Олеся Судзиловская, Андрей Соколов, Данко, Сергей Глушко, Дарья Чаруша
Описание: Молодой демобилизовавшийся из армии капитан в поисках лучшей жизни приезжает в Москву. Все попытки честно заработать на жилье и пропитание заканчиваются крахом. К тому же он оказывается должен крупную сумму своему товарищу по военному училищу, давно забросившему армию и успешно танцующему стриптиз в одном из столичных клубов. Чтобы вернуть долг, герой соглашается работать в стриптизе и с этого момента становится профессиональным жиголо.
Все раздачи фильма: Московский жиголо
Доп. информация:
Сэмпл
Качество: DVDRip
Формат: AVI
Видео кодек: XviD
Аудио кодек: MP3
Видео: 608x336 (1.81:1), 25 fps, XviD build 45 ~900 kbps avg, 0.18 bit/pixel
Аудио: 44.100 kHz, MPEG Layer 3, 2 ch, ~96.00 kbps avg

MI

Код:Общее
Полное имя : C:\otkat\Видео\Московский жиголо\Moskovskij.zhigolo.2008.O.DVDRip_700mb.avi
Формат : AVI
Формат/Информация : Audio Video Interleave
Размер файла : 702 Мбайт
Продолжительность : 1 ч. 37 м.
Общий поток : 1008 Кбит/сек
Программа кодирования : Lavf50.6.0
Видео
Идентификатор : 0
Формат : xvid
Идентификатор кодека : xvid
Продолжительность : 1 ч. 37 м.
Битрейт : 899 Кбит/сек
Ширина : 608 пикселей
Высота : 336 пикселей
Соотношение сторон : 16:9
Частота кадров : 25,000 кадров/сек
Бит/(Пиксели*Кадры) : 0.176
Размер потока : 626 Мбайт (89%)
Аудио
Идентификатор : 1
Формат : MPEG Audio
Версия формата : Version 1
Профиль формата : Layer 3
Режим : Joint stereo
Расширение режима : MS Stereo
Идентификатор кодека : 55
Идентификатор кодека/Подсказка : MP3
Продолжительность : 1 ч. 37 м.
Вид битрейта : Постоянный
Битрейт : 96,0 Кбит/сек
Каналы : 2 канала
Частота : 44,1 КГц
Метод сжатия : С потерями
Размер потока : 66,8 Мбайт (10%)
Выравнивание : Соединение по промежуткам
Продолжительность промежутка : 26 мс. (0,65 видеокадр)
Время предзагрузки промежутка : 26 мс.

Скриншоты

[cybertorrent.ru].t52.torrent 
Торрент: Зарегистрирован [ 2018-02-15 13:57 ] · A5477552E6833FD8876CE9BF279914FD4A776500

Скачать .torrent

Скачать

14 KB

Статус: проверено
Скачан: 0 раз
Размер: 702 MB
Профиль [ЛС]
Показать сообщения:    

Текущее время: 21-Май 18:55

Часовой пояс: UTC ± 0



Вы не можете начинать темы
Вы не можете отвечать на сообщения
Вы не можете редактировать свои сообщения
Вы не можете удалять свои сообщения
Вы не можете голосовать в опросах
Вы не можете прикреплять файлы к сообщениям
Вы можете скачивать файлы