Статистика раздачи
Размер:  4,71 GB   |    Зарегистрирован:  5 месяцев 6 дней   |    Скачан:  0 раз

Полного источника не было: Никогда

 
     
 
 

ondreyko ®

Пол:
Не указан
Стаж:
9 месяцев 26 дней
Сообщений:
65

История Затоичи / Zatôichi monogatari / Zatoichi: The Blind Swordsman
Страна: Япония
Студия: Katsu Production
Год выпуска: 1974
Жанр: Боевик, драма
Продолжительность: 7 из 26 (7 х ~ 00:46:00)
Режиссер: Синтаро Кацу / Shintaro Katsu, Акикадзу Ота / Akikazu Ota, Кадзуо Мори / Kazuo Mori
В ролях:
Синтаро Кацу, Синтаро Акацуки, Рэндзи Исибаси, Кэйдзо Каниэ, Сюнъя Вадзаки, Дайго Кусано, Асао Койкэ, Сюнъити Окита, Хидэки Ханаока, Син Кисида
Перевод: Одноголосая озвучка
автор перевода: Виктор Береговых (Рекламы нет)
Описание:
Затоичи (Дзатоити) - главный персонаж одной из самых длинных в Японии серий фильмов и телевизионных сериалов, основанных на периоде Эдо. Герой — слепой массажист-костоправ и искусный фехтовальщик, которого придумал писатель-романист Кан Симодзава. Этот изначально второстепенный герой для большого экрана был разработан компанией Daiei Studios и сыгран актёром Синтаро Кацу. С 1962 по 1989 было произведено 26 фильмов. С 1972 по 1974 под тем же именем снимался сериал. Прежде чем сериал отменили, вышло 112 серий о Дзатоити. В театральной версии, которую поставил Такаси Миикэ, Дзатоити сыграл Сё Аикава.-На первый взгляд Дзатоити — безобидный слепой массажист-костоправ, который бродит по стране, зарабатывая на жизнь игрой в кости, массажем, иглоукалыванием, пением и игрой на музыкальных инструментах, однако он к тому же мастерски владеет мечом, в частности техникой иайдо, а также другими японскими техниками фехтования, борьбой дзюдзюцу. С собой он носит не традиционную катану, а сикоми-дзуэ (меч в трости), длинные мечи были запрещены несамурайским сословиям в период Эдо, зато вакидзаси мог носить кто угодно. В основном, сикоми-дзуэ были с прямым лезвием низкого качества, не сравнимого с обычной катаной, но, как показано в Меч в трости Дзатоити, его оружие превосходит по качеству другие мечи. В фильмах и сериалах о Дзатоити часто повторяется сюжет с защитой невинных от угнетения или от враждебных банд якудза, расследованиями, установлением справедливости. Комбинация невероятных бойцовских способностей с обратным хватом меча, отличного слуха, обоняния и кинестетики делают его опаснейшим противником.-Настоящее имя героя — Ити. Дзато — низший из четырёх официальных рангов Тододза, гильдии слепых в Японии (также дзато означает слепого человека на японском сленге). Массажист — обычная профессия для японских слепых того времени.-| IMDb | КиноПоиск | Скачать сэмпл | исходник для рипа DVD-9 |-Заказ перевода: vitolinform-Неотключаемые субтитры: Без хардсаба
Субтитры: Русские (Виктор Береговых), английские (.SRT)
Оригинальная аудиодорожка: Есть
Качество видео: DVDRip
Разрешение: 360p
Формат: AVI
Видео: 704x512 (1,375), 23.976 fps, XviD build 67 ~1680 kbps avg, 0.194 bit/pixel
Аудио 1: 48 kHz, AC3 Dolby Digital, 2/0 (L,R) ch, ~192 kbps | Одноголосый закадровый (Виктор Береговых)
Аудио 2: 48 kHz, AC3 Dolby Digital, 2/0 (L,R) ch, ~192 kbps | Японский

MediaInfo

Istoriya.Zatoichi.s1.ep.1-7.1974.DVDRip\Istoriya.Zatoichi.s.1ep.01.1974.DVDRip.avi
Формат : AVI
Формат/Информация : Audio Video Interleave
Размер файла : 690 Мбайт
Продолжительность : 46 м. 23 с.
Общий поток : 2079 Кбит/сек
Название фильма : История Затоичи (Сезон 1, Серия 1 из 26) / Zatoichi monogatari (1974) DVDRip
Режиссёр : Синтаро Кацу / Shintaro Katsu, Акикадзу Ота / Akikazu Ota, Кадзуо Мори / Kazuo Mori
Жанр : Боевик, драма
Программа кодирования : VirtualDubMod 1.5.10.2 (build 2542/release)
Формат оригинала/Имя : Телевизионный сериал
Авторское право : Япония, Katsu Production Co. Ltd.
Примечание : Rip by vitolinform
Видео
Идентификатор : 0
Формат : MPEG-4 Visual
Профиль формата : Advanced Simple@L5
Настройки формата : BVOP2
Параметр BVOP формата : 2
Параметр QPel формата : Нет
Параметр GMC формата : Без точки перехода
Параметр матрицы формата : Default (MPEG)
Идентификатор кодека : XVID
Идентификатор кодека/Подсказка : XviD
Продолжительность : 46 м. 23 с.
Битрейт : 1680 Кбит/сек
Ширина : 704 пикселя
Высота : 512 пикселей
Соотношение сторон : 1,375
Частота кадров : 23,976 (24000/1001) кадра/сек
Цветовое пространство : YUV
Субдискретизация насыщенности : 4:2:0
Битовая глубина : 8 бит
Тип развёртки : Прогрессивная
Метод сжатия : С потерями
Бит/(Пиксели*Кадры) : 0.194
Размер потока : 558 Мбайт (81%)
Библиотека кодирования : XviD 67
Аудио #1
Идентификатор : 1
Формат : AC-3
Формат/Информация : Audio Coding 3
Коммерческое название : Dolby Digital
Идентификатор кодека : 2000
Продолжительность : 46 м. 22 с.
Вид битрейта : Постоянный
Битрейт : 192 Кбит/сек
Каналы : 2 канала
ChannelLayout : L R
Частота : 48,0 КГц
Частота кадров : 31,250 кадров/сек (1536 SPF)
Битовая глубина : 16 бит
Метод сжатия : С потерями
Размер потока : 63,7 Мбайт (9%)
Выравнивание : Разделение по промежуткам
Продолжительность промежутка : 42 мс. (1,00 видеокадр)
Время предзагрузки промежутка : 500 мс.
Заголовок : Russian (VO Виктор Береговых)
ServiceKind/String : Complete Main
Аудио #2
Идентификатор : 2
Формат : AC-3
Формат/Информация : Audio Coding 3
Коммерческое название : Dolby Digital
Идентификатор кодека : 2000
Продолжительность : 46 м. 22 с.
Вид битрейта : Постоянный
Битрейт : 192 Кбит/сек
Каналы : 2 канала
ChannelLayout : L R
Частота : 48,0 КГц
Частота кадров : 31,250 кадров/сек (1536 SPF)
Битовая глубина : 16 бит
Метод сжатия : С потерями
Размер потока : 63,7 Мбайт (9%)
Выравнивание : Разделение по промежуткам
Продолжительность промежутка : 42 мс. (1,00 видеокадр)
Время предзагрузки промежутка : 500 мс.
Заголовок : Japanese
ServiceKind/String : Complete Main
=====================================================
Istoriya.Zatoichi.s1.ep.1-7.1974.DVDRip\Istoriya.Zatoichi.s.1ep.02.1974.DVDRip.avi
Формат : AVI
Формат/Информация : Audio Video Interleave
Размер файла : 690 Мбайт
Продолжительность : 46 м. 42 с.
Общий поток : 2064 Кбит/сек
Название фильма : История Затоичи (Сезон 1, Серия 2 из 26) / Zatoichi monogatari (1974) DVDRip
Режиссёр : Синтаро Кацу / Shintaro Katsu, Акикадзу Ота / Akikazu Ota, Кадзуо Мори / Kazuo Mori
Жанр : Боевик, драма
Программа кодирования : VirtualDubMod 1.5.10.2 (build 2542/release)
Формат оригинала/Имя : Телевизионный сериал
Авторское право : Япония, Katsu Production Co. Ltd.
Примечание : Rip by vitolinform
Видео
Идентификатор : 0
Формат : MPEG-4 Visual
Профиль формата : Advanced Simple@L5
Настройки формата : BVOP2
Параметр BVOP формата : 2
Параметр QPel формата : Нет
Параметр GMC формата : Без точки перехода
Параметр матрицы формата : Default (MPEG)
Идентификатор кодека : XVID
Идентификатор кодека/Подсказка : XviD
Продолжительность : 46 м. 42 с.
Битрейт : 1666 Кбит/сек
Ширина : 704 пикселя
Высота : 512 пикселей
Соотношение сторон : 1,375
Частота кадров : 23,976 (24000/1001) кадра/сек
Цветовое пространство : YUV
Субдискретизация насыщенности : 4:2:0
Битовая глубина : 8 бит
Тип развёртки : Прогрессивная
Метод сжатия : С потерями
Бит/(Пиксели*Кадры) : 0.193
Размер потока : 557 Мбайт (81%)
Библиотека кодирования : XviD 67
Аудио #1
Идентификатор : 1
Формат : AC-3
Формат/Информация : Audio Coding 3
Коммерческое название : Dolby Digital
Идентификатор кодека : 2000
Продолжительность : 46 м. 41 с.
Вид битрейта : Постоянный
Битрейт : 192 Кбит/сек
Каналы : 2 канала
ChannelLayout : L R
Частота : 48,0 КГц
Частота кадров : 31,250 кадров/сек (1536 SPF)
Битовая глубина : 16 бит
Метод сжатия : С потерями
Размер потока : 64,1 Мбайт (9%)
Выравнивание : Разделение по промежуткам
Продолжительность промежутка : 42 мс. (1,00 видеокадр)
Время предзагрузки промежутка : 500 мс.
Заголовок : Russian (VO Виктор Береговых)
ServiceKind/String : Complete Main
Аудио #2
Идентификатор : 2
Формат : AC-3
Формат/Информация : Audio Coding 3
Коммерческое название : Dolby Digital
Идентификатор кодека : 2000
Продолжительность : 46 м. 41 с.
Вид битрейта : Постоянный
Битрейт : 192 Кбит/сек
Каналы : 2 канала
ChannelLayout : L R
Частота : 48,0 КГц
Частота кадров : 31,250 кадров/сек (1536 SPF)
Битовая глубина : 16 бит
Метод сжатия : С потерями
Размер потока : 64,1 Мбайт (9%)
Выравнивание : Разделение по промежуткам
Продолжительность промежутка : 42 мс. (1,00 видеокадр)
Время предзагрузки промежутка : 500 мс.
Заголовок : Japanese
ServiceKind/String : Complete Main
======================================================
Istoriya.Zatoichi.s1.ep.1-7.1974.DVDRip\Istoriya.Zatoichi.s.1ep.03.1974.DVDRip.avi
Формат : AVI
Формат/Информация : Audio Video Interleave
Размер файла : 690 Мбайт
Продолжительность : 47 м. 15 с.
Общий поток : 2040 Кбит/сек
Название фильма : История Затоичи (Сезон 1, Серия 3 из 26) / Zatoichi monogatari (1974) DVDRip
Режиссёр : Синтаро Кацу / Shintaro Katsu, Акикадзу Ота / Akikazu Ota, Кадзуо Мори / Kazuo Mori
Жанр : Боевик, драма
Программа кодирования : VirtualDubMod 1.5.10.2 (build 2542/release)
Формат оригинала/Имя : Телевизионный сериал
Авторское право : Япония, Katsu Production Co. Ltd.
Примечание : Rip by vitolinform
Видео
Идентификатор : 0
Формат : MPEG-4 Visual
Профиль формата : Advanced Simple@L5
Настройки формата : BVOP2
Параметр BVOP формата : 2
Параметр QPel формата : Нет
Параметр GMC формата : Без точки перехода
Параметр матрицы формата : Default (MPEG)
Идентификатор кодека : XVID
Идентификатор кодека/Подсказка : XviD
Продолжительность : 47 м. 15 с.
Битрейт : 1642 Кбит/сек
Ширина : 704 пикселя
Высота : 512 пикселей
Соотношение сторон : 1,375
Частота кадров : 23,976 (24000/1001) кадра/сек
Цветовое пространство : YUV
Субдискретизация насыщенности : 4:2:0
Битовая глубина : 8 бит
Тип развёртки : Прогрессивная
Метод сжатия : С потерями
Бит/(Пиксели*Кадры) : 0.190
Размер потока : 555 Мбайт (80%)
Библиотека кодирования : XviD 67
Аудио #1
Идентификатор : 1
Формат : AC-3
Формат/Информация : Audio Coding 3
Коммерческое название : Dolby Digital
Идентификатор кодека : 2000
Продолжительность : 47 м. 15 с.
Вид битрейта : Постоянный
Битрейт : 192 Кбит/сек
Каналы : 2 канала
ChannelLayout : L R
Частота : 48,0 КГц
Частота кадров : 31,250 кадров/сек (1536 SPF)
Битовая глубина : 16 бит
Метод сжатия : С потерями
Размер потока : 64,9 Мбайт (9%)
Выравнивание : Разделение по промежуткам
Продолжительность промежутка : 42 мс. (1,00 видеокадр)
Время предзагрузки промежутка : 500 мс.
Заголовок : Russian (VO Виктор Береговых)
ServiceKind/String : Complete Main
Аудио #2
Идентификатор : 2
Формат : AC-3
Формат/Информация : Audio Coding 3
Коммерческое название : Dolby Digital
Идентификатор кодека : 2000
Продолжительность : 47 м. 15 с.
Вид битрейта : Постоянный
Битрейт : 192 Кбит/сек
Каналы : 2 канала
ChannelLayout : L R
Частота : 48,0 КГц
Частота кадров : 31,250 кадров/сек (1536 SPF)
Битовая глубина : 16 бит
Метод сжатия : С потерями
Размер потока : 64,9 Мбайт (9%)
Выравнивание : Разделение по промежуткам
Продолжительность промежутка : 42 мс. (1,00 видеокадр)
Время предзагрузки промежутка : 500 мс.
ServiceKind/String : Complete Main
========================================================
Istoriya.Zatoichi.s1.ep.1-7.1974.DVDRip\Istoriya.Zatoichi.s.1ep.04.1974.DVDRip.avi
Формат : AVI
Формат/Информация : Audio Video Interleave
Размер файла : 690 Мбайт
Продолжительность : 46 м. 43 с.
Общий поток : 2063 Кбит/сек
Название фильма : История Затоичи (Сезон 1, Серия 4 из 26) / Zatoichi monogatari (1974) DVDRip
Режиссёр : Синтаро Кацу / Shintaro Katsu, Акикадзу Ота / Akikazu Ota, Кадзуо Мори / Kazuo Mori
Жанр : Боевик, драма
Программа кодирования : VirtualDubMod 1.5.10.2 (build 2542/release)
Формат оригинала/Имя : Телевизионный сериал
Авторское право : Япония, Katsu Production Co. Ltd.
Примечание : Rip by vitolinform
Видео
Идентификатор : 0
Формат : MPEG-4 Visual
Профиль формата : Advanced Simple@L5
Настройки формата : BVOP2
Параметр BVOP формата : 2
Параметр QPel формата : Нет
Параметр GMC формата : Без точки перехода
Параметр матрицы формата : Default (MPEG)
Идентификатор кодека : XVID
Идентификатор кодека/Подсказка : XviD
Продолжительность : 46 м. 43 с.
Битрейт : 1665 Кбит/сек
Ширина : 704 пикселя
Высота : 512 пикселей
Соотношение сторон : 1,375
Частота кадров : 23,976 (24000/1001) кадра/сек
Цветовое пространство : YUV
Субдискретизация насыщенности : 4:2:0
Битовая глубина : 8 бит
Тип развёртки : Прогрессивная
Метод сжатия : С потерями
Бит/(Пиксели*Кадры) : 0.193
Размер потока : 557 Мбайт (81%)
Библиотека кодирования : XviD 67
Аудио #1
Идентификатор : 1
Формат : AC-3
Формат/Информация : Audio Coding 3
Коммерческое название : Dolby Digital
Идентификатор кодека : 2000
Продолжительность : 46 м. 42 с.
Вид битрейта : Постоянный
Битрейт : 192 Кбит/сек
Каналы : 2 канала
ChannelLayout : L R
Частота : 48,0 КГц
Частота кадров : 31,250 кадров/сек (1536 SPF)
Битовая глубина : 16 бит
Метод сжатия : С потерями
Размер потока : 64,1 Мбайт (9%)
Выравнивание : Разделение по промежуткам
Продолжительность промежутка : 42 мс. (1,00 видеокадр)
Время предзагрузки промежутка : 500 мс.
Заголовок : Russian (VO Виктор Береговых)
ServiceKind/String : Complete Main
Аудио #2
Идентификатор : 2
Формат : AC-3
Формат/Информация : Audio Coding 3
Коммерческое название : Dolby Digital
Идентификатор кодека : 2000
Продолжительность : 46 м. 42 с.
Вид битрейта : Постоянный
Битрейт : 192 Кбит/сек
Каналы : 2 канала
ChannelLayout : L R
Частота : 48,0 КГц
Частота кадров : 31,250 кадров/сек (1536 SPF)
Битовая глубина : 16 бит
Метод сжатия : С потерями
Размер потока : 64,1 Мбайт (9%)
Выравнивание : Разделение по промежуткам
Продолжительность промежутка : 42 мс. (1,00 видеокадр)
Время предзагрузки промежутка : 500 мс.
Заголовок : Japanese
ServiceKind/String : Complete Main
===============================================================
Istoriya.Zatoichi.s1.ep.1-7.1974.DVDRip\Istoriya.Zatoichi.s.1ep.05.1974.DVDRip.avi
Формат : AVI
Формат/Информация : Audio Video Interleave
Размер файла : 690 Мбайт
Продолжительность : 47 м. 17 с.
Общий поток : 2040 Кбит/сек
Название фильма : История Затоичи (Сезон 1, Серия 5 из 26) / Zatoichi monogatari (1974) DVDRip
Режиссёр : Синтаро Кацу / Shintaro Katsu, Акикадзу Ота / Akikazu Ota, Кадзуо Мори / Kazuo Mori
Жанр : Боевик, драма
Программа кодирования : VirtualDubMod 1.5.10.2 (build 2542/release)
Формат оригинала/Имя : Телевизионный сериал
Авторское право : Япония, Katsu Production Co. Ltd.
Примечание : Rip by vitolinform
Видео
Идентификатор : 0
Формат : MPEG-4 Visual
Профиль формата : Advanced Simple@L5
Настройки формата : BVOP2
Параметр BVOP формата : 2
Параметр QPel формата : Нет
Параметр GMC формата : Без точки перехода
Параметр матрицы формата : Default (MPEG)
Идентификатор кодека : XVID
Идентификатор кодека/Подсказка : XviD
Продолжительность : 47 м. 17 с.
Битрейт : 1642 Кбит/сек
Ширина : 704 пикселя
Высота : 512 пикселей
Соотношение сторон : 1,375
Частота кадров : 23,976 (24000/1001) кадра/сек
Цветовое пространство : YUV
Субдискретизация насыщенности : 4:2:0
Битовая глубина : 8 бит
Тип развёртки : Прогрессивная
Метод сжатия : С потерями
Бит/(Пиксели*Кадры) : 0.190
Размер потока : 556 Мбайт (80%)
Библиотека кодирования : XviD 67
Аудио #1
Идентификатор : 1
Формат : AC-3
Формат/Информация : Audio Coding 3
Коммерческое название : Dolby Digital
Идентификатор кодека : 2000
Продолжительность : 47 м. 15 с.
Вид битрейта : Постоянный
Битрейт : 192 Кбит/сек
Каналы : 2 канала
ChannelLayout : L R
Частота : 48,0 КГц
Частота кадров : 31,250 кадров/сек (1536 SPF)
Битовая глубина : 16 бит
Метод сжатия : С потерями
Размер потока : 64,9 Мбайт (9%)
Выравнивание : Разделение по промежуткам
Продолжительность промежутка : 42 мс. (1,00 видеокадр)
Время предзагрузки промежутка : 500 мс.
Заголовок : Russian (VO Виктор Береговых)
ServiceKind/String : Complete Main
Аудио #2
Идентификатор : 2
Формат : AC-3
Формат/Информация : Audio Coding 3
Коммерческое название : Dolby Digital
Идентификатор кодека : 2000
Продолжительность : 47 м. 15 с.
Вид битрейта : Постоянный
Битрейт : 192 Кбит/сек
Каналы : 2 канала
ChannelLayout : L R
Частота : 48,0 КГц
Частота кадров : 31,250 кадров/сек (1536 SPF)
Битовая глубина : 16 бит
Метод сжатия : С потерями
Размер потока : 64,9 Мбайт (9%)
Выравнивание : Разделение по промежуткам
Продолжительность промежутка : 42 мс. (1,00 видеокадр)
Время предзагрузки промежутка : 500 мс.
Заголовок : Japanese
ServiceKind/String : Complete Main
===============================================================
Istoriya.Zatoichi.s1.ep.1-7.1974.DVDRip\Istoriya.Zatoichi.s.1ep.06.1974.DVDRip.avi
Формат : AVI
Формат/Информация : Audio Video Interleave
Размер файла : 689 Мбайт
Продолжительность : 46 м. 36 с.
Общий поток : 2068 Кбит/сек
Название фильма : История Затоичи (Сезон 1, Серия 6 из 26) / Zatoichi monogatari (1974) DVDRip
Режиссёр : Синтаро Кацу / Shintaro Katsu, Акикадзу Ота / Akikazu Ota, Кадзуо Мори / Kazuo Mori
Жанр : Боевик, драма
Программа кодирования : VirtualDubMod 1.5.10.2 (build 2542/release)
Формат оригинала/Имя : Телевизионный сериал
Авторское право : Япония, Katsu Production Co. Ltd.
Примечание : Rip by vitolinform
Видео
Идентификатор : 0
Формат : MPEG-4 Visual
Профиль формата : Advanced Simple@L5
Настройки формата : BVOP2
Параметр BVOP формата : 2
Параметр QPel формата : Нет
Параметр GMC формата : Без точки перехода
Параметр матрицы формата : Default (MPEG)
Идентификатор кодека : XVID
Идентификатор кодека/Подсказка : XviD
Продолжительность : 46 м. 36 с.
Битрейт : 1669 Кбит/сек
Ширина : 704 пикселя
Высота : 512 пикселей
Соотношение сторон : 1,375
Частота кадров : 23,976 (24000/1001) кадра/сек
Цветовое пространство : YUV
Субдискретизация насыщенности : 4:2:0
Битовая глубина : 8 бит
Тип развёртки : Прогрессивная
Метод сжатия : С потерями
Бит/(Пиксели*Кадры) : 0.193
Размер потока : 556 Мбайт (81%)
Библиотека кодирования : XviD 67
Аудио #1
Идентификатор : 1
Формат : AC-3
Формат/Информация : Audio Coding 3
Коммерческое название : Dolby Digital
Идентификатор кодека : 2000
Продолжительность : 46 м. 36 с.
Вид битрейта : Постоянный
Битрейт : 192 Кбит/сек
Каналы : 2 канала
ChannelLayout : L R
Частота : 48,0 КГц
Частота кадров : 31,250 кадров/сек (1536 SPF)
Битовая глубина : 16 бит
Метод сжатия : С потерями
Размер потока : 64,0 Мбайт (9%)
Выравнивание : Разделение по промежуткам
Продолжительность промежутка : 42 мс. (1,00 видеокадр)
Время предзагрузки промежутка : 500 мс.
Заголовок : Russian (VO Виктор Береговых)
ServiceKind/String : Complete Main
Аудио #2
Идентификатор : 2
Формат : AC-3
Формат/Информация : Audio Coding 3
Коммерческое название : Dolby Digital
Идентификатор кодека : 2000
Продолжительность : 46 м. 36 с.
Вид битрейта : Постоянный
Битрейт : 192 Кбит/сек
Каналы : 2 канала
ChannelLayout : L R
Частота : 48,0 КГц
Частота кадров : 31,250 кадров/сек (1536 SPF)
Битовая глубина : 16 бит
Метод сжатия : С потерями
Размер потока : 64,0 Мбайт (9%)
Выравнивание : Разделение по промежуткам
Продолжительность промежутка : 42 мс. (1,00 видеокадр)
Время предзагрузки промежутка : 500 мс.
Заголовок : Japanese
ServiceKind/String : Complete Main
===========================================================
Istoriya.Zatoichi.s1.ep.1-7.1974.DVDRip\Istoriya.Zatoichi.s.1ep.07.1974.DVDRip.avi
Формат : AVI
Формат/Информация : Audio Video Interleave
Размер файла : 689 Мбайт
Продолжительность : 46 м. 42 с.
Общий поток : 2063 Кбит/сек
Название фильма : История Затоичи (Сезон 1, Серия 7 из 26) / Zatoichi monogatari (1974) DVDRip
Режиссёр : Синтаро Кацу / Shintaro Katsu, Акикадзу Ота / Akikazu Ota, Кадзуо Мори / Kazuo Mori
Жанр : Боевик, драма
Программа кодирования : VirtualDubMod 1.5.10.2 (build 2542/release)
Формат оригинала/Имя : Телевизионный сериал
Авторское право : Япония, Katsu Production Co. Ltd.
Примечание : Rip by vitolinform
Видео
Идентификатор : 0
Формат : MPEG-4 Visual
Профиль формата : Advanced Simple@L5
Настройки формата : BVOP1
Параметр BVOP формата : 1
Параметр QPel формата : Нет
Параметр GMC формата : Без точки перехода
Параметр матрицы формата : Default (MPEG)
Идентификатор кодека : XVID
Идентификатор кодека/Подсказка : XviD
Продолжительность : 46 м. 42 с.
Битрейт : 1664 Кбит/сек
Ширина : 704 пикселя
Высота : 512 пикселей
Соотношение сторон : 1,375
Частота кадров : 23,976 (24000/1001) кадра/сек
Цветовое пространство : YUV
Субдискретизация насыщенности : 4:2:0
Битовая глубина : 8 бит
Тип развёртки : Прогрессивная
Метод сжатия : С потерями
Бит/(Пиксели*Кадры) : 0.193
Размер потока : 556 Мбайт (81%)
Библиотека кодирования : XviD 67
Аудио #1
Идентификатор : 1
Формат : AC-3
Формат/Информация : Audio Coding 3
Коммерческое название : Dolby Digital
Идентификатор кодека : 2000
Продолжительность : 46 м. 42 с.
Вид битрейта : Постоянный
Битрейт : 192 Кбит/сек
Каналы : 2 канала
ChannelLayout : L R
Частота : 48,0 КГц
Частота кадров : 31,250 кадров/сек (1536 SPF)
Битовая глубина : 16 бит
Метод сжатия : С потерями
Размер потока : 64,1 Мбайт (9%)
Выравнивание : Разделение по промежуткам
Продолжительность промежутка : 42 мс. (1,00 видеокадр)
Время предзагрузки промежутка : 500 мс.
Заголовок : Russian (VO Виктор Береговых)
ServiceKind/String : Complete Main
Аудио #2
Идентификатор : 2
Формат : AC-3
Формат/Информация : Audio Coding 3
Коммерческое название : Dolby Digital
Идентификатор кодека : 2000
Продолжительность : 46 м. 42 с.
Вид битрейта : Постоянный
Битрейт : 192 Кбит/сек
Каналы : 2 канала
ChannelLayout : L R
Частота : 48,0 КГц
Частота кадров : 31,250 кадров/сек (1536 SPF)
Битовая глубина : 16 бит
Метод сжатия : С потерями
Размер потока : 64,1 Мбайт (9%)
Выравнивание : Разделение по промежуткам
Продолжительность промежутка : 42 мс. (1,00 видеокадр)
Время предзагрузки промежутка : 500 мс.
Заголовок : Japanese
ServiceKind/String : Complete Main

Скриншоты

[cybertorrent.ru].t5254.torrent 
Торрент: Зарегистрирован [ 2019-08-13 16:44 ] · 9AB6130B13E538DFD53ADFAA2BA1178A80155A91

Скачать .torrent

Скачать

26 KB

Статус: проверено
Скачан: 0 раз
Размер: 4,71 GB
terms.php
Профиль [ЛС]
Показать сообщения:    

Текущее время: 20-Янв 14:12

Часовой пояс: UTC ± 0



Вы не можете начинать темы
Вы не можете отвечать на сообщения
Вы не можете редактировать свои сообщения
Вы не можете удалять свои сообщения
Вы не можете голосовать в опросах
Вы не можете прикреплять файлы к сообщениям
Вы можете скачивать файлы