Сколько живет любовь / Серии: 1-4 из 4 (Денис Елеонский) [2019, мелодрама, WEBRip 720p]

Ответить на тему
Статистика раздачи
Размер:  4,92 GB   |    Зарегистрирован:  6 дней   |    Скачан:  0 раз

Полного источника не было: Никогда

   
 
Автор Сообщение

sss777sss ®

Пол: Не указан

Стаж: 12 дней

Сообщений: 64

Создавать темы 18-Мар-2019 13:06

[Цитировать]

Сколько живет любовь
Год выпуска: 2019
Производство: Эволюшн Пикчерс
Жанр: мелодрама
Продолжительность: ~00:46:00 серия
Субтитры: нет
Режиссёр: Денис Елеонский
В ролях: Вячеслав Чепурченко, Ольга Павловец, Юлия Рудина, Алексей Федькин, Наталья Бурмистрова, Андрей Полищук, Евгений Зарубин, Вячеслав Коробицин, Любовь Макеева, Татьяна Мишина, Елена Руфанова, Михаил Соловьёв, Мария Шманина
Описание: Учительнице математики Вере Алексеевне трудно найти общий язык с отчаянным хулиганом, второгодником Сашей. Одиннадцатиклассник рискует остаться без аттестата даже со второй попытки. Вера принимает решение подтянуть парня по своему предмету, но во время занятий Саша внезапно признается ей в любви. Вера замужем, ее пугает создавшаяся ситуация, разница в возрасте. А еще больше – настойчивость Саши, который добивается своей цели, невзирая на препятствия… Прошло много лет… Александр стал президентом крупной финансовой компании, дела его идут в гору и у него счастливый брак. Единственное, что омрачает семейную жизнь – отсутствие детей. А еще, словно капли яда, потихоньку отравляющие жизнь пары, окружающие и осуждающие их близкие люди. Ведь жена Саши намного его старше... Смогут ли супруги сохранить чувство, когда весь мир против них?

Реклама: Нет.
Кино-театр
Все раздачи сериала
Sample
Качество: WEBRip 720p - 25Kuzmich
Формат: MKV
Видео кодек: H.264
Аудио кодек: AC3
Видео: MPEG4 AVC Video, H264, 16:9, 1280x720, 25 fps, ~3450 kbps, 0.150 bit/pixel
Аудио: AC3 Dolby Digital, 48.0 kHz, 2/0 (L,R) ch, 192 kbps

MI

General
Unique ID : 224512871429877439407741244022416119168 (0xA8E79B2FD6CD2AAB87F68D93D15A9580)
Complete name : D:\Skolko.zhivet.lyubov.2019.WEB-DL.720.25Kuzmich\Skolko.zhivet.lyubov.(01.seriya.iz.04).WEB-DL.720.25Kuzmich.mkv
Format : Matroska
Format version : Version 2
File size : 1.20 GiB
Duration : 46 min 6 s
Overall bit rate mode : Variable
Overall bit rate : 3 718 kb/s
Encoded date : UTC 2019-03-14 17:26:01
Writing application : mkvmerge v4.0.0 ('The Stars were mine') сборка от Jun 6 2010 16:18:42
Writing library : libebml v1.0.0 + libmatroska v1.0.0
Video
ID : 1
Format : AVC
Format/Info : Advanced Video Codec
Format profile : High@L4.1
Format settings : CABAC / 5 Ref Frames
Format settings, CABAC : Yes
Format settings, ReFrames : 5 frames
Codec ID : V_MPEG4/ISO/AVC
Duration : 46 min 6 s
Bit rate mode : Variable
Bit rate : 3 452 kb/s
Maximum bit rate : 40.0 Mb/s
Width : 1 280 pixels
Height : 720 pixels
Display aspect ratio : 16:9
Frame rate mode : Constant
Frame rate : 25.000 FPS
Color space : YUV
Chroma subsampling : 4:2:0
Bit depth : 8 bits
Scan type : Progressive
Bits/(Pixel*Frame) : 0.150
Stream size : 1.11 GiB (93%)
Language : Russian
Default : Yes
Forced : No
Audio
ID : 2
Format : AC-3
Format/Info : Audio Coding 3
Codec ID : A_AC3
Duration : 46 min 6 s
Bit rate mode : Constant
Bit rate : 192 kb/s
Channel(s) : 2 channels
Channel positions : Front: L R
Sampling rate : 48.0 kHz
Frame rate : 31.250 FPS (1536 SPF)
Bit depth : 16 bits
Compression mode : Lossy
Stream size : 63.3 MiB (5%)
Language : Russian
Service kind : Complete Main
Default : Yes
Forced : No

Скриншоты


Если ваш рейтинг упадет ниже 0,3, вы не сможете скачивать торренты! Подробнее о рейтинге.

[cybertorrent.ru].t527.torrent 
Торрент: Зарегистрирован [ 2019-03-18 13:08 ] · C5024D8914F181D05A34E0ED6DCE93F16A90C9B2

Скачать .torrent

Скачать

25 KB

Статус: проверено
Скачан: 0 раз
Размер: 4,92 GB
terms.php
[Профиль] [ЛС]
Показать сообщения:    
Ответить на тему

Текущее время: 25-Мар 12:29

Часовой пояс: UTC ± 0



Вы не можете начинать темы
Вы не можете отвечать на сообщения
Вы не можете редактировать свои сообщения
Вы не можете удалять свои сообщения
Вы не можете голосовать в опросах
Вы не можете прикреплять файлы к сообщениям
Вы можете скачивать файлы