Статистика раздачи
Размер:  15,71 GB   |    Зарегистрирован:  5 месяцев 5 дней   |    Скачан:  0 раз

Полного источника не было: Никогда

 
     
 
 

ondreyko ®

Пол:
Не указан
Стаж:
9 месяцев 25 дней
Сообщений:
65

История Затоичи / Zatoichi: The Blind Swordsman / Zatôichi monogatari
Страна: Япония
Студия: Katsu Production
Жанр: Боевик, драма
Год выпуска: 1974
Продолжительность: 7 х ~ 00:46:23
Перевод: Одноголосый закадровый | Виктор Береговых
Субтитры: английские
Оригинальная аудиодорожка: японский
Режиссер: Синтаро Кацу / Shintaro Katsu, Акикадзу Ота / Akikazu Ota, Кадзуо Мори / Kazuo Mori
В ролях:
Синтаро Кацу, Синтаро Акацуки, Рэндзи Исибаси, Кэйдзо Каниэ, Сюнъя Вадзаки, Дайго Кусано, Асао Койкэ, Сюнъити Окита, Хидэки Ханаока, Син Кисида
Описание:
Затоичи (Дзатоити) - главный персонаж одной из самых длинных в Японии серий фильмов и телевизионных сериалов, основанных на периоде Эдо. Герой — слепой массажист-костоправ и искусный фехтовальщик, которого придумал писатель-романист Кан Симодзава. Этот изначально второстепенный герой для большого экрана был разработан компанией Daiei Studios и сыгран актёром Синтаро Кацу. С 1962 по 1989 было произведено 26 фильмов. С 1972 по 1974 под тем же именем снимался сериал. Прежде чем сериал отменили, вышло 112 серий о Дзатоити. В театральной версии, которую поставил Такаси Миикэ, Дзатоити сыграл Сё Аикава.-На первый взгляд Дзатоити — безобидный слепой массажист-костоправ, который бродит по стране, зарабатывая на жизнь игрой в кости, массажем, иглоукалыванием, пением и игрой на музыкальных инструментах, однако он к тому же мастерски владеет мечом, в частности техникой иайдо, а также другими японскими техниками фехтования, борьбой дзюдзюцу. С собой он носит не традиционную катану, а сикоми-дзуэ (меч в трости), длинные мечи были запрещены несамурайским сословиям в период Эдо, зато вакидзаси мог носить кто угодно. В основном, сикоми-дзуэ были с прямым лезвием низкого качества, не сравнимого с обычной катаной, но, как показано в Меч в трости Дзатоити, его оружие превосходит по качеству другие мечи. В фильмах и сериалах о Дзатоити часто повторяется сюжет с защитой невинных от угнетения или от враждебных банд якудза, расследованиями, установлением справедливости. Комбинация невероятных бойцовских способностей с обратным хватом меча, отличного слуха, обоняния и кинестетики делают его опаснейшим противником.-Настоящее имя героя — Ити. Дзато — низший из четырёх официальных рангов Тододза, гильдии слепых в Японии (также дзато означает слепого человека на японском сленге). Массажист — обычная профессия для японских слепых того времени.-| IMDb | КиноПоиск | Скачать сэмпл |-Диски найден в сети (Азияклуб asiandvdclub). К нему добавлена русская звуковая дорожка с переводом и озвучиванием Виктора Береговых. Используемые программы: PgcDemux, MuxMan0.15R, VobBlanker
Заказ перевода: vitolinform-Бонусы:
- Трейлеры (на втором DVD-9)
Меню: Есть, статичное, озвученное, на английском языке
Тип релиза: DVD9 (custom)
Контейнер: DVD-Video
Видео: NTSC 4:3 (720x480) VBR, ~ 6528.72 kbps, fps 29.970
Аудио 1: Russian (Dolby AC3, 2 ch) | AC3, 2/0 (L,R) ch, 192 kbps, 48.0 kHz, 16 bits | Одноголосый закадровый (Виктор Береговых)
Аудио 2: Japanese (Dolby AC3, 2 ch) | AC3, 2/0 (L,R) ch, 192 kbps, 48.0 kHz, 16 bits | Японский
Формат субтитров: prerendered (DVD/IDX+SUB)

MediaInfo

Title: Istoriya.Zatoichi.1974.DVD9 (1-3serii)
Size: 6.55 Gb ( 6 862 958,00 KBytes ) - DVD-9
Enabled regions: 1, 2, 3, 4, 5, 6, 7, 8
VTS_01 :
Play Length: 00:01:41+{00:01:41}
Video: NTSC 4:3 (720x480) VBR
Audio:
Not specified, AC3, 2/0 (L,R) ch, 192 kbps, Delay 0 mSec
VTS_02 :
Play Length: 00:00:00+{00:00:00}
Video: NTSC 4:3 (720x480) VBR
VTS_03 :
Play Length: 00:00:07+{00:00:07}
Video: NTSC 4:3 (720x480) VBR
VTS_04 :
Play Length: 00:46:20
Video: NTSC 4:3 (720x480) VBR
Audio:
Russian, AC3, 2/0 (L,R) ch, 192 kbps, Delay 0 mSec
Japanese, AC3, 2/0 (L,R) ch, 192 kbps, Delay 0 mSec
Subtitles:
English
VTS_05 :
Play Length: 00:46:39
Video: NTSC 4:3 (720x480) VBR
Audio:
Russian, AC3, 2/0 (L,R) ch, 192 kbps, Delay 0 mSec
Japanese, AC3, 2/0 (L,R) ch, 192 kbps, Delay 0 mSec
Subtitles:
English
VTS_06 :
Play Length: 00:47:12
Video: NTSC 4:3 (720x480) VBR
Audio:
Russian, AC3, 2/0 (L,R) ch, 192 kbps, Delay 0 mSec
Japanese, AC3, 2/0 (L,R) ch, 192 kbps, Delay 0 mSec
Subtitles:
English
==============================================
Title: Istoriya.Zatoichi.1974.DVD9 (4-5serii)
Size: 4.61 Gb ( 4 834 796,00 KBytes ) - DVD-9
Enabled regions: 1, 2, 3, 4, 5, 6, 7, 8
VTS_01 :
Play Length: 00:01:41+{00:01:41}
Video: NTSC 4:3 (720x480) VBR
Audio:
Not specified, AC3, 2/0 (L,R) ch, 192 kbps, Delay 0 mSec
VTS_02 :
Play Length: 00:00:00+{00:00:00}
Video: NTSC 4:3 (720x480) VBR
VTS_03 :
Play Length: 00:00:08+{00:00:08}
Video: NTSC 4:3 (720x480) VBR
VTS_04 :
Play Length: 00:46:40
Video: NTSC 4:3 (720x480) VBR
Audio:
Russian, AC3, 2/0 (L,R) ch, 192 kbps, Delay 0 mSec
Japanese, AC3, 2/0 (L,R) ch, 192 kbps, Delay 0 mSec
Subtitles:
English
VTS_05 :
Play Length: 00:47:14
Video: NTSC 4:3 (720x480) VBR
Audio:
Russian, AC3, 2/0 (L,R) ch, 192 kbps, Delay 0 mSec
Japanese, AC3, 2/0 (L,R) ch, 192 kbps, Delay 0 mSec
Subtitles:
English
VTS_06 :
Play Length: 00:02:18+{00:02:18}
Video: NTSC 4:3 (720x480) VBR
Audio:
English, AC3, 2/0 (L,R) ch, 192 kbps, Delay 0 mSec
VTS_07 :
Play Length: 00:01:53+{00:01:53}
Video: NTSC 4:3 (720x480) VBR
Audio:
English, AC3, 2/0 (L,R) ch, 192 kbps, Delay 0 mSec
VTS_08 :
Play Length: 00:01:46+{00:01:46}
Video: NTSC 4:3 (720x480) VBR
Audio:
English (Dolby AC3, 2 ch)
====================================================
Title: Istoriya.Zatoichi.1974.DVD9(6-7serii)
Size: 4.55 Gb ( 4 772 600,00 KBytes ) - DVD-9
Enabled regions: 1, 2, 3, 4, 5, 6, 7, 8
VTS_01 :
Play Length: 00:01:41+{00:01:41}
Video: NTSC 4:3 (720x480) VBR
Audio:
Not specified (Dolby AC3, 2 ch)
VTS_02 :
Play Length: 00:00:00+{00:00:00}
Video: NTSC 4:3 (720x480) VBR
VTS_03 :
Play Length: 00:46:33
Video: NTSC 4:3 (720x480) VBR
Audio:
Russian (Dolby AC3, 2 ch)
Japanese (Dolby AC3, 2 ch)
Subtitles:
English
VTS_04 :
Play Length: 00:00:31+{00:00:31}
Video: NTSC 4:3 (720x480) VBR
Audio:
Japanese (Dolby AC3, 2 ch)
VTS_05 :
Play Length: 00:46:39
Video: NTSC 4:3 (720x480) VBR
Audio:
Russian (Dolby AC3, 2 ch)
Japanese (Dolby AC3, 2 ch)
Subtitles:
English
VTS_06 :
Play Length: 00:00:29+{00:00:29}
Video: NTSC 4:3 (720x480) VBR
Audio:
Japanese (Dolby AC3, 2 ch)
VTS_07 :
Play Length: 00:00:08+{00:00:08}
Video: NTSC 4:3 (720x480) VBR
===================================================
Istoriya.Zatoichi.s1.ep.1-7.1974.3xDVD9\Istoriya.Zatoichi.1974.DVD9 (1-3serii)\VIDEO_TS\VTS_04_2.VOB
Формат : MPEG-PS
Размер файла : 1024 Мбайт
Продолжительность : 21 м. 57 с.
Режим общего битрейта : Переменный
Общий поток : 6521 Кбит/сек
Видео
Идентификатор : 224 (0xE0)
Формат : MPEG Video
Версия формата : Version 2
Профиль формата : Main@Main
Настройки формата : BVOP
Параметр BVOP формата : Да
Параметр матрицы формата : По умолчанию
Параметр GOP формата : M=3, N=13
Структура изображения : Frame
Продолжительность : 21 м. 57 с.
Вид битрейта : Переменный
Битрейт : 6000 Кбит/сек
Ширина : 720 пикселей
Высота : 480 пикселей
Соотношение сторон : 4:3
Частота кадров : 29,970 (30000/1001) кадров/сек
Стандарт вещания : NTSC
Цветовое пространство : YUV
Субдискретизация насыщенности : 4:2:0
Битовая глубина : 8 бит
Тип развёртки : Чересстрочная
Порядок развёртки : Верхнее поле первое
Метод сжатия : С потерями
Бит/(Пиксели*Кадры) : 0.579
Временной код первого кадра : 01:21:56:01
Оригинал временного кода : Group of pictures header
GOP, открыто/закрыто : Открыто
Размер потока : 943 Мбайт (92%)
Основные цвета : BT.601 NTSC
Характеристики трансфера : BT.601
Коэффициенты матрицы : BT.601
Аудио #1
Идентификатор : 189 (0xBD)-128 (0x80)
Формат : AC-3
Формат/Информация : Audio Coding 3
Коммерческое название : Dolby Digital
Режим смешивания : DVD-Video
Продолжительность : 21 м. 57 с.
Вид битрейта : Постоянный
Битрейт : 192 Кбит/сек
Каналы : 2 канала
ChannelLayout : L R
Частота : 48,0 КГц
Частота кадров : 31,250 кадров/сек (1536 SPF)
Битовая глубина : 16 бит
Метод сжатия : С потерями
Задержка видео : -389 мс.
Размер потока : 30,1 Мбайт (3%)
ServiceKind/String : Complete Main
Аудио #2
Идентификатор : 189 (0xBD)-129 (0x81)
Формат : AC-3
Формат/Информация : Audio Coding 3
Коммерческое название : Dolby Digital
Режим смешивания : DVD-Video
Продолжительность : 21 м. 57 с.
Вид битрейта : Постоянный
Битрейт : 192 Кбит/сек
Каналы : 2 канала
ChannelLayout : L R
Частота : 48,0 КГц
Частота кадров : 31,250 кадров/сек (1536 SPF)
Битовая глубина : 16 бит
Метод сжатия : С потерями
Задержка видео : -389 мс.
Размер потока : 30,1 Мбайт (3%)
ServiceKind/String : Complete Main
Текст
Идентификатор : 189 (0xBD)-32 (0x20)
Формат : RLE
Формат/Информация : Run-length encoding
Режим смешивания : DVD-Video
Задержка видео : 667 мс.
Меню
===================================================
Istoriya.Zatoichi.s1.ep.1-7.1974.3xDVD9\Istoriya.Zatoichi.1974.DVD9 (4-5serii)\VIDEO_TS\VTS_04_2.VOB
Формат : MPEG-PS
Размер файла : 1024 Мбайт
Продолжительность : 21 м. 57 с.
Режим общего битрейта : Переменный
Общий поток : 6521 Кбит/сек
Видео
Идентификатор : 224 (0xE0)
Формат : MPEG Video
Версия формата : Version 2
Профиль формата : Main@Main
Настройки формата : BVOP
Параметр BVOP формата : Да
Параметр матрицы формата : По умолчанию
Параметр GOP формата : M=3, N=13
Структура изображения : Frame
Продолжительность : 21 м. 56 с.
Вид битрейта : Переменный
Битрейт : 6000 Кбит/сек
Ширина : 720 пикселей
Высота : 480 пикселей
Соотношение сторон : 4:3
Частота кадров : 29,970 (30000/1001) кадров/сек
Стандарт вещания : NTSC
Цветовое пространство : YUV
Субдискретизация насыщенности : 4:2:0
Битовая глубина : 8 бит
Тип развёртки : Чересстрочная
Порядок развёртки : Верхнее поле первое
Метод сжатия : С потерями
Бит/(Пиксели*Кадры) : 0.579
Временной код первого кадра : 01:21:56:01
Оригинал временного кода : Group of pictures header
GOP, открыто/закрыто : Открыто
Размер потока : 943 Мбайт (92%)
Основные цвета : BT.601 NTSC
Характеристики трансфера : BT.601
Коэффициенты матрицы : BT.601
Аудио #1
Идентификатор : 189 (0xBD)-128 (0x80)
Формат : AC-3
Формат/Информация : Audio Coding 3
Коммерческое название : Dolby Digital
Режим смешивания : DVD-Video
Продолжительность : 21 м. 57 с.
Вид битрейта : Постоянный
Битрейт : 192 Кбит/сек
Каналы : 2 канала
ChannelLayout : L R
Частота : 48,0 КГц
Частота кадров : 31,250 кадров/сек (1536 SPF)
Битовая глубина : 16 бит
Метод сжатия : С потерями
Задержка видео : -453 мс.
Размер потока : 30,1 Мбайт (3%)
ServiceKind/String : Complete Main
Аудио #2
Идентификатор : 189 (0xBD)-129 (0x81)
Формат : AC-3
Формат/Информация : Audio Coding 3
Коммерческое название : Dolby Digital
Режим смешивания : DVD-Video
Продолжительность : 21 м. 57 с.
Вид битрейта : Постоянный
Битрейт : 192 Кбит/сек
Каналы : 2 канала
ChannelLayout : L R
Частота : 48,0 КГц
Частота кадров : 31,250 кадров/сек (1536 SPF)
Битовая глубина : 16 бит
Метод сжатия : С потерями
Задержка видео : -453 мс.
Размер потока : 30,1 Мбайт (3%)
ServiceKind/String : Complete Main
Текст
Идентификатор : 189 (0xBD)-32 (0x20)
Формат : RLE
Формат/Информация : Run-length encoding
Режим смешивания : DVD-Video
Меню
==========================================================
Istoriya.Zatoichi.s1.ep.1-7.1974.3xDVD9\Istoriya.Zatoichi.1974.DVD9(6-7serii)\VIDEO_TS\VTS_03_2.VOB
Формат : MPEG-PS
Размер файла : 1024 Мбайт
Продолжительность : 20 м. 22 с.
Режим общего битрейта : Переменный
Общий поток : 7026 Кбит/сек
Видео
Идентификатор : 224 (0xE0)
Формат : MPEG Video
Версия формата : Version 2
Профиль формата : Main@Main
Настройки формата : BVOP
Параметр BVOP формата : Да
Параметр матрицы формата : По умолчанию
Параметр GOP формата : M=3, N=13
Структура изображения : Frame
Продолжительность : 20 м. 22 с.
Вид битрейта : Переменный
Битрейт : 6500 Кбит/сек
Ширина : 720 пикселей
Высота : 480 пикселей
Соотношение сторон : 4:3
Частота кадров : 29,970 (30000/1001) кадров/сек
Стандарт вещания : NTSC
Цветовое пространство : YUV
Субдискретизация насыщенности : 4:2:0
Битовая глубина : 8 бит
Тип развёртки : Чересстрочная
Порядок развёртки : Верхнее поле первое
Метод сжатия : С потерями
Бит/(Пиксели*Кадры) : 0.628
Временной код первого кадра : 01:20:21:04
Оригинал временного кода : Group of pictures header
GOP, открыто/закрыто : Открыто
Размер потока : 947 Мбайт (93%)
Основные цвета : BT.601 NTSC
Характеристики трансфера : BT.601
Коэффициенты матрицы : BT.601
Аудио #1
Идентификатор : 189 (0xBD)-128 (0x80)
Формат : AC-3
Формат/Информация : Audio Coding 3
Коммерческое название : Dolby Digital
Режим смешивания : DVD-Video
Продолжительность : 20 м. 22 с.
Вид битрейта : Постоянный
Битрейт : 192 Кбит/сек
Каналы : 2 канала
ChannelLayout : L R
Частота : 48,0 КГц
Частота кадров : 31,250 кадров/сек (1536 SPF)
Битовая глубина : 16 бит
Метод сжатия : С потерями
Задержка видео : -466 мс.
Размер потока : 28,0 Мбайт (3%)
ServiceKind/String : Complete Main
Аудио #2
Идентификатор : 189 (0xBD)-129 (0x81)
Формат : AC-3
Формат/Информация : Audio Coding 3
Коммерческое название : Dolby Digital
Режим смешивания : DVD-Video
Продолжительность : 20 м. 22 с.
Вид битрейта : Постоянный
Битрейт : 192 Кбит/сек
Каналы : 2 канала
ChannelLayout : L R
Частота : 48,0 КГц
Частота кадров : 31,250 кадров/сек (1536 SPF)
Битовая глубина : 16 бит
Метод сжатия : С потерями
Задержка видео : -466 мс.
Размер потока : 28,0 Мбайт (3%)
ServiceKind/String : Complete Main
Текст
Идентификатор : 189 (0xBD)-32 (0x20)
Формат : RLE
Формат/Информация : Run-length encoding
Режим смешивания : DVD-Video
Задержка видео : 4 с. 605 мс.
Меню

Скриншоты меню

Скриншоты

Скриншоты доп. материалов

[cybertorrent.ru].t5283.torrent 
Торрент: Зарегистрирован [ 2019-08-14 17:06 ] · CC905C3180880E8BE52B8E3E7D93E722F8DE5F8D

Скачать .torrent

Скачать

89 KB

Статус: проверено
Скачан: 0 раз
Размер: 15,71 GB
terms.php
Профиль [ЛС]
Показать сообщения:    

Текущее время: 19-Янв 21:41

Часовой пояс: UTC ± 0



Вы не можете начинать темы
Вы не можете отвечать на сообщения
Вы не можете редактировать свои сообщения
Вы не можете удалять свои сообщения
Вы не можете голосовать в опросах
Вы не можете прикреплять файлы к сообщениям
Вы можете скачивать файлы