Статистика раздачи
Размер:  1,17 GB   |    Зарегистрирован:  3 месяца 6 дней   |    Скачан:  0 раз

Полного источника не было: Никогда

 
   
 
 

lopster ®

Пол:
Не указан
Стаж:
3 месяца 6 дней
Сообщений:
612

Союз без секса
Год выпуска: 2006
Жанр: Мелодрама
Продолжительность: 2 ~ 01:06:43
Режиссер: Ольга Музалева
В ролях: Марианна Вертинская, Эдуард Трухменёв, Александр Сирин, Виктория Исакова, Елена Панова, Гурам Баблишвили, Алексей Дубровский, Екатерина Копанова, Никита Прозоровский-Семёнов, Людмила Евдокимова, Елена Лямина, Сергей Удовик
Описание: Знаменитая писательница приютила у себя молодого провинциала - начинающего литератора Андрея - только потому, что он как две капли воды похож на ее первую несчастливую любовь. И если ему понравилась ее дочь - прекрасно, пусть хоть у них получится. А то, что с Андреем приехала жена - пустяки: хочет выбиться в люди, пусть избавляется от своего провинциального прошлого, включая жену и моральные принципы.
Все раздачи фильма: Союз без секса
Качество: DVDRip
Формат: AVI
Видео кодек: XviD
Аудио кодек: MP3
Видео: 640x480 (1.33:1), 25 fps, XviD build 46 ~1120 kbps avg, 0.15 bit/pixel
Аудио: 48 kHz, MPEG Layer 3, 2 ch, ~128.00 kbps avg

MI

Код:Общее
Полное имя : C:\otkat\Видео\Союз без секса\Soyuz_bez_seksa_2_serii_is.2_XviD_DVDRip[torrents.ru]\Soyuz.bez.seksa.(2.serii.is.2).2004.XviD.DVDRip 1.avi
Формат : AVI
Формат/Информация : Audio Video Interleave
Размер файла : 600 Мбайт
Продолжительность : 1 ч. 5 м.
Общий поток : 1275 Кбит/сек
Программа кодирования : VirtualDubMod 1.5.4.1 (build 2178/release)
Библиотека кодирования : VirtualDubMod build 2178/release
Видео
Идентификатор : 0
Формат : MPEG-4 Visual
Профиль формата : Advanced Simple@L5
Параметр BVOP формата : 1
Параметр QPel формата : Нет
Параметр GMC формата : Без точки перехода
Параметр матрицы формата : Выборочная
Идентификатор кодека : XVID
Идентификатор кодека/Подсказка : XviD
Продолжительность : 1 ч. 5 м.
Битрейт : 1140 Кбит/сек
Ширина : 640 пикселей
Высота : 480 пикселей
Соотношение сторон : 4:3
Частота кадров : 25,000 кадров/сек
Цветовое пространство : YUV
Субдискретизация насыщенности : 4:2:0
Битовая глубина : 8 бит
Тип развёртки : Прогрессивная
Метод сжатия : С потерями
Бит/(Пиксели*Кадры) : 0.148
Размер потока : 536 Мбайт (89%)
Библиотека кодирования : XviD 1.1.2 (UTC 2006-11-01)
Аудио
Идентификатор : 1
Формат : MPEG Audio
Версия формата : Version 1
Профиль формата : Layer 3
Режим : Joint stereo
Расширение режима : MS Stereo
Идентификатор кодека : 55
Идентификатор кодека/Подсказка : MP3
Продолжительность : 1 ч. 5 м.
Вид битрейта : Постоянный
Битрейт : 128 Кбит/сек
Каналы : 2 канала
Частота : 48,0 КГц
Метод сжатия : С потерями
Размер потока : 60,2 Мбайт (10%)
Выравнивание : Соединение по промежуткам
Продолжительность промежутка : 80 мс. (2,00 видеокадра)
Время предзагрузки промежутка : 504 мс.
Библиотека кодирования : LAME3.97
Настройки программы : -m j -V 4 -q 2 -lowpass 17 -b 128

Скриншоты


[cybertorrent.ru].t53.torrent 
Торрент: Зарегистрирован [ 2018-02-15 13:57 ] · FBD2BB4EDA93EDF9FFA688A62196F52CB180376B

Скачать .torrent

Скачать

12 KB

Статус: проверено
Скачан: 0 раз
Размер: 1,17 GB
Профиль [ЛС]
Показать сообщения:    

Текущее время: 21-Май 18:59

Часовой пояс: UTC ± 0



Вы не можете начинать темы
Вы не можете отвечать на сообщения
Вы не можете редактировать свои сообщения
Вы не можете удалять свои сообщения
Вы не можете голосовать в опросах
Вы не можете прикреплять файлы к сообщениям
Вы можете скачивать файлы