Статистика раздачи
Размер:  18,68 GB   |    Зарегистрирован:  9 дней   |    Скачан:  0 раз

Полного источника не было: Никогда

 
   
 
 

xfactor ®

Пол:
Не указан
Стаж:
4 месяца 7 дней
Сообщений:
5

Легенда о Героях Галактики / Legend of the Galactic Heroes
Года выпуска: с 1988 по 1997
Страна: Япония
Жанр: фантастика (космоопера), драма
Продолжительность: по ~24 мин. каждая серия
Хардсаб: нет
Софтсаб: русские srt
Перевод с английского: Arashi (2005)
Редакторы русского текста:
Antrekot, Katherine Kinn
Тайминг субтитров: Arashi, Raemond Thorn
Озвучено : Persona99
Режиссер: Исигуро Нобуро
Студия: Kitty Films
Описание:
«Легенда о героях Галактики» представляет собой экранизацию цикла романов популярного писателя-фантаста Ёсики Танаки, чьи произведения тоже мало известны за пределами Японии и не переведены ни на один из европейских языков. Вероятно, это самый длинный OVA-сериал в истории аниме. 110 эпизодов, разделённых на 4 сезона, плюс три полнометражных фильма плюс два дополнительных мини-сериала - всё это никогда не транслировалось по телевидению и выпускалось только на видеокассетах и лазерных дисках. Несмотря на это, у себя на родине «Герои Галактики» пользуются огромной популярностью, в то время как всему остальному миру этот сериал почти незнаком.
Сюжет переносит нас в 35-й век (по нашему летоисчислению), в эру космических войн в масштабах галактики Млечный путь. Уже 150 лет не прекращается война между Галактической Империей и Союзом Свободных Планет. В центре событий находятся два героя, командующие враждующих держав: адмирал Галактического Рейха Райнхард фон Лоэнграмм, юный честолюбивый гений, в двадцать лет ставший главнокомандующим флотом, и адмирал Союза Ян Вэньли, солдат поневоле, всю жизнь стремившийся быть историком и мечтающий только об одном - отставке.
Описание частично заимствовано с World Art - там же можно найти более подробную информацию.
Релиз GSGroup

Список эпизодов

001. В вечной ночи
002. Битва при Астарте
003. Рождение 13-го флота
004. Закат Империи
005. Мятеж Кастропа
006. Розенриттеры
007. Изерлон захвачен
008. Холодные, ясные электронные глаза
009. Заговор Клопштока
010. Война Джессики
011. Актриса покидает сцену
012. Вторжение на территорию Рейха
013. Дождь скорби
014. Освобождение границы
015. Битва при Амлитцере
016. Новые повороты
017. Перед бурей
018. Липпштадтский заговор
019. Ян посылает флот
020. Кровопролитие в космосе
021. Битва при Дории
022. Верность и отвага
023. Падение Голденбаумов
024. Кому выгодна победа?
025. День перед жребием
026. Прощай, далекий свет
027. Крещение огнём
028. Портреты
029. На тонком волоске
030. Я в растерянности
031. Следственная комиссия
032. Война без оружия
033. Крепость против крепости
034. Возвращение на родину
035. Решительность и устремленность
036. Гром
037. Похищение юного кайзера
038. Стрела пущена!
039. Путешествие начинается
040. Путь Юлиана - и путь человечества
041. Рагнарёк
042. Приглашение к реквиему
043. Гьяллархорн трубит
044. Захват Феззана
045. Холодная волна
046. Флот-ковчег адмирала Яна
047. Небеса требуют: "Свободы!
048. Битва при Рантемарио
049. Тьма перед рассветом
050. Битва после битвы
051. Противостояние на Вермиллионе (часть 1)
052. Противостояние на Вермиллионе (часть 2)
053. Внезапная перемена
054. Да здравствует кайзер!
055. После коронации занавес поднимается вновь
056. Устремленный к Земле
057. Дело Кюммеля
058. Посетители
059. Былое, настоящее, грядущее
060. Поймать Чудотворца
061. Приглашение в оперу
062. Потоки крови
063. Святая земля
064. Конец каникул
065. Против всех знамён
066. Под знаменем Золотого Льва
067. И снова Рагнарёк

068. Эль Фасиль
069. Битва за возвращение Изерлона
070. Возвращение блудного сына
071. Битва при Маль-Адетте (часть 1)
072. Битва при Маль-Адетте (часть 2)
073. Имперский эдикт в саду Зимней Розы
074. Впереди - дальний путь
075. Раскаты грома
076. Канун празднества
077. В продуваемый ветром проход
078. Весенний шторм
079. Война в проходах (часть 1)
080. Война в проходах (часть 2)
081. Война в проходах (часть 3)
082. Чудотворец не вернётся
083. После празднества
084. Разочаровывающая победа
085. Перенос столицы
086. Новое правительство августа
087. Штормовое предупреждение
088. В дальних краях
089. Роза в конце лета
090. Грохот
091. Росток
092. Случай на Урваши
093. Ради гордости
094. Мятеж - привилегия героев
095. Двое великих наносят удар одновременно
096. Жить мечом...
097. ...умереть от меча
098. Последний реквием
099. Вперёд, в будущее
100. Да здравствует императрица!
101. Приглашение к мятежу
102. Вызов
103. Космическая мозаика
104. Мир ценой кровопролития
105. Планета смятения
106. Горит Штейбальм Шлосс!
107. Путь кровавой звезды
108. Прекрасная принцесса жаждет крови!
109. Выцветший флаг Золотого Льва
110. Я видел этот сон до конца

Подробные тех. данные

General
Complete name : I:\002_Legend_of_the Galactic_Heroes_OVA-1_[Persona99].rus.jap.avi
Format : AVI
Format/Info : Audio Video Interleave
File size : 310 MiB
Duration : 24mn 7s
Overall bit rate : 1796 Kbps
Writing application : VirtualDubMod 1.5.10.2 (build 2540/release)
Writing library : VirtualDubMod build 2540/release
Video
Format : MPEG-4 Visual
Format profile : Streaming Video@L1
Format settings, BVOP : Yes
Format settings, QPel : No
Format settings, GMC : No warppoints
Format settings, Matrix : Default
Muxing mode : Packet Bitstream
Codec ID : XVID
Codec ID/Hint : XviD
Duration : 24mn 7s
Bit rate : 1394 Kbps
Width : 640 pixels
Height : 480 pixels
Display aspect ratio : 4/3
Frame rate : 29.970 fps
Resolution : 8 bits
Colorimetry : 4:2:0
Scan type : Progressive
Bits/(Pixel*Frame) : 0.151
Stream size : 241 MiB (78%)
Writing library : XviD 1.0.3 (UTC 2004-12-20)
Audio #1
Format : AC-3
Format/Info : Audio Coding 3
Codec ID : 2000
Duration : 24mn 7s
Bit rate mode : Constant
Bit rate : 192 Kbps
Channel(s) : 2 channels
Channel positions : L R
Sampling rate : 48.0 KHz
Stream size : 33.1 MiB (11%)
Alignment : Split accross interleaves
Interleave, duration : 33 ms (1.00 video frame)
Interleave, preload duration : 500 ms
Audio #2
Format : AC-3
Format/Info : Audio Coding 3
Codec ID : 2000
Duration : 24mn 5s
Bit rate mode : Constant
Bit rate : 192 Kbps
Channel(s) : 2 channels
Channel positions : L R
Sampling rate : 48.0 KHz
Stream size : 33.1 MiB (11%)
Alignment : Split accross interleaves
Interleave, duration : 33 ms (1.00 video frame)
Interleave, preload duration : 500 ms
Отличия от: http://cybertorrent.ru/viewtopic.php?t=2717709 Альтозвучка + релиз умер?
http://cybertorrent.ru/viewtopic.php?t=823984 Наличие озвучки.
Качество: DVDRip
Формат: AVI
Видео кодек: XviD
Аудио кодек: AC-3
Видео: XviD, 1394 Kbps, 640x480, 29,970 fps, by Golden 8 bits
Аудио: RU - VO, AC-3, stereo, 48 KHz, 192 kbps; JP - AC-3, stereo, 48 KHz, 192 kbps vbr
[cybertorrent.ru].t53563.torrent 
Торрент: Зарегистрирован [ 2018-06-13 10:43 ] · 7BBBFEC5B52154E537A13DB06608751568606F83

Скачать .torrent

Скачать

108 KB

Статус: проверено
Скачан: 0 раз
Размер: 18,68 GB
Профиль [ЛС]
Показать сообщения:    

Текущее время: 22-Июн 10:48

Часовой пояс: UTC ± 0



Вы не можете начинать темы
Вы не можете отвечать на сообщения
Вы не можете редактировать свои сообщения
Вы не можете удалять свои сообщения
Вы не можете голосовать в опросах
Вы не можете прикреплять файлы к сообщениям
Вы можете скачивать файлы