Статистика раздачи
Размер:  1,9 GB   |    Зарегистрирован:  7 месяцев   |    Скачан:  0 раз

Полного источника не было: Никогда

   
 

Гость ®

Пол:
Не указан

Чудотворцы / Miracle Workers
«On the Trillionth Day...God Quit»
- Производство: США
Год выпуска: 2019
Жанр: комедия
Продолжительность: ~ 00:20 :00 серия-Премьера (мир): 12 февраля 2019-Перевод: Профессиональный (одноголосый закадровый) | Кураж-Бамбей-Режиссёр: Райан Кейс, Морис Мэрэбл, Йорма Такконе-В ролях: Стив Бушеми, Дэниэл Рэдклифф, Джеральдин Висванатхан, Каран Сони, Саша Компере, Джон Басс, Лолли Адефоп, Mike Dunston, Калеб Эмери, Тереза О’Ши-Описание:
Небесная канцелярия Бога — масштабный офис с множеством отделов и сотрудников, работающих в атмосфере цейтнота и многозадачности. Есть даже HR или же напоминающий службу технической поддержки отдел обработки молитв. Именно его служащие, ангелы Элиза и Крэйг, берутся за спасение Земли, когда приунывший Господь вдруг решает ее погубить.
Теперь у ангелов есть две недели, чтобы соединить несоединимое — двух одиноких людей в пару — и доказать, что человечество вовсе не безнадежно и достойно существования.-
[box=#d2d2d2,#000000]Ссылка на предыдущие и альтернативные раздачи[/box]--Качество видео: WEB-DLRip
Формат: AVI
Видео: XviD, 720 x 400 (1.800) at 25.000 fps, ~2000 kbps, 0.28 Bits/Pixel
Аудио Rus: AC-3, 48 kHz, 6 ch, 384 kbps |Кураж-Бамбей|
Аудио Eng: AC-3, 48 kHz, 6 ch, 384 kbps |Original|
Субтитры: Английские
[box=#d2d2d2,#000000]Реклама: Отсутствует[/box]-

MediaInfo:

Общее
Полное имя : E:\_Сериалы\_Сериалы\Чудотворцы\Miracle.Workers.s01.WEB-DLRip.CasStudio\Miracle.Workers.S01E01.WEB-DLRip.CasStudio.avi
Формат : AVI
Формат/Информация : Audio Video Interleave
Размер файла : 417 Мбайт
Продолжительность : 20 м. 55 с.
Общий поток : 2784 Кбит/сек
Программа кодирования : VirtualDubMod 1.5.10.3 | www.virtualdub-fr.org || (build 2550/release)
Библиотека кодирования : VirtualDubMod build 2550/release
Видео
Идентификатор : 0
Формат : MPEG-4 Visual
Профиль формата : Advanced Simple@L5
Настройки формата : BVOP1
Параметр BVOP формата : 1
Параметр QPel формата : Нет
Параметр GMC формата : Без точки перехода
Параметр матрицы формата : Default (MPEG)
Идентификатор кодека : XVID
Идентификатор кодека/Подсказка : XviD
Продолжительность : 20 м. 55 с.
Битрейт : 2002 Кбит/сек
Ширина : 720 пикселей
Высота : 400 пикселей
Соотношение сторон : 16:9
Частота кадров : 25,000 кадров/сек
Цветовое пространство : YUV
Субдискретизация насыщенности : 4:2:0
Битовая глубина : 8 бит
Тип развёртки : Прогрессивная
Метод сжатия : С потерями
Бит/(Пиксели*Кадры) : 0.278
Размер потока : 300 Мбайт (72%)
Библиотека кодирования : XviD 1.2.1 (UTC 2008-12-04)
Аудио #1
Идентификатор : 1
Формат : AC-3
Формат/Информация : Audio Coding 3
Коммерческое название : Dolby Digital
Идентификатор кодека : 2000
Продолжительность : 20 м. 55 с.
Вид битрейта : Постоянный
Битрейт : 384 Кбит/сек
Каналы : 6 каналов
Channel layout : L R C LFE Ls Rs
Частота : 48,0 КГц
Частота кадров : 31,250 кадров/сек (1536 SPF)
Битовая глубина : 16 бит
Метод сжатия : С потерями
Размер потока : 57,5 Мбайт (14%)
Выравнивание : Разделение по промежуткам
Продолжительность промежутка : 40 мс. (1,00 видеокадр)
Время предзагрузки промежутка : 500 мс.
ServiceKind/String : Complete Main
Аудио #2
Идентификатор : 2
Формат : AC-3
Формат/Информация : Audio Coding 3
Коммерческое название : Dolby Digital
Идентификатор кодека : 2000
Продолжительность : 20 м. 55 с.
Вид битрейта : Постоянный
Битрейт : 384 Кбит/сек
Каналы : 6 каналов
Channel layout : L R C LFE Ls Rs
Частота : 48,0 КГц
Частота кадров : 31,250 кадров/сек (1536 SPF)
Битовая глубина : 16 бит
Метод сжатия : С потерями
Размер потока : 57,5 Мбайт (14%)
Выравнивание : Разделение по промежуткам
Продолжительность промежутка : 40 мс. (1,00 видеокадр)
Время предзагрузки промежутка : 500 мс.
ServiceKind/String : Complete Main
-

Скриншоты:

-

Внимание! Раздача ведётся путём добавления новых серий!

Раздача ведётся путём добавления новых серий; при каждом добавлении создаётся новый торрент.
Чтобы начать докачку новой серии, пользователям необходимо сделать следующее:
1. остановить скачивание,
2. удалить старый торрент у себя из клиента (старые серии удалять не надо),
3. скачать новый торрент и запустить его у себя в клиенте вместо старого, при этом указать клиенту путь в старую папку, куда и должно происходить скачивание новых серий.
Ваш клиент при этом должен произвести хеширование (проверку) старой папки (если не производит сам - помогите ему сделать это), и будет докачивать только те серии которых у вас ещё нет. Старые серии при этом не удаляются, а продолжают раздаваться!
Eсли вы уже удалили старые серии, то предотвратить повторную закачку старых серий можно, отжав галочку в соответствующих местах при запуске нового торрента. По возможности, желательно не удалять старые серии как можно дольше, чтобы релизёр не столько продолжал раздавать старые серии, а смог сконцентрироваться на новых.
Совет для тех, кто не хочет ждать перехеширования:
Создайте ещё одну папку рядом с папкой сериала (рядом, а не в ней!!!). Каждую новую серию после удачной загрузки копируйте в новую папку так чтобы ваша основная папка всегда была пуста. Когда ваш новый торрент предложит вам закачать все файлы, выберете только последнюю. Для сидирования же укажите адрес новой папки.
Как закачать отдельный файл из торрента или докачать ранее пропущенные файлы торрента!
-

Как закачать отдельный файл

1. Открыть торрент
2. Снять галки с тех файлов торрента, которые мы не хотим закачивать. Оставляем только на нужных нам файлах (файле).
3. Нажать О.К.
В клиенте utorrent
Инструкция
1) Открыть торрент

2) Снять галки с тех файлов торрента, которые мы не хотим закачивать:
* либо вручную, снимая с каждого файла галку( скрин №1)
* либо, нажав кнопку "Снять метки (Select None)", сняв сразу со всех файлов(скрин №2)
№1

№2

Оставляем только на нужных нам файлах (файле).

3)Нажать О.К
-Приятного просмотра!!!
[cybertorrent.ru].t536.torrent 
Торрент: Зарегистрирован [ 2019-03-18 13:08 ] · 772E2E6DC108642A064DA2D636424AC6945DD952

Скачать .torrent

Скачать

20 KB

Статус: проверено
Скачан: 0 раз
Размер: 1,9 GB
terms.php
Показать сообщения:    

Текущее время: 19-Окт 04:31

Часовой пояс: UTC ± 0



Вы не можете начинать темы
Вы не можете отвечать на сообщения
Вы не можете редактировать свои сообщения
Вы не можете удалять свои сообщения
Вы не можете голосовать в опросах
Вы не можете прикреплять файлы к сообщениям
Вы можете скачивать файлы