Статистика раздачи
Размер:  1,36 GB   |    Зарегистрирован:  3 месяца 11 дней   |    Скачан:  0 раз

Полного источника не было: Никогда

 
   
 
 

lopster ®

Пол:
Не указан
Стаж:
3 месяца 11 дней
Сообщений:
612

Чёрный мяч
Год выпуска: 2002
Жанр: драма, спорт
Продолжительность: 01:25:19
Режиссер: Хусейн Эркенов
В ролях: Сергей Чирков, Инесса Павленко, Ольга Машная, Анатолий Журавлёв, Леонид Громов, Николай Пастухов, Сергей Тарамаев, Александр Дедюшко, Галина Бокашевская, Пётр Вельяминов, Павел Сиротин, Владимир Стержаков, Александр Числов, Игорь Артамонов, Алексей Волков, Александра Калинина, Дмитрий Кожухаренко
Описание: Провинциальный городок – с фабрикой и двумя школами - жил и жил своей однообразной жизнью. Группа подростков от скуки гоняла мяч на школьном дворе. Чтобы не дать подросткам стать наркоманами и преступниками, бизнесмен решил создать юношескую футбольную команду. Но дела в спортколлективе складываются отнюдь не гладко. Талантливый юноша Денис Скворцов полюбил - и взаимно - дочь бизнесмена Машу. Денису, для которого футбол - не просто игра, семнадцать лет, он по уши влюблен, он знаменит и уважаем среди сверстников, он – лидер. Ему есть, что терять в схватке с богатым спонсором...

Доп. информация: В фильме использованы музыкальное композиции ДеЦЛа и «Отпетых мошенников».
Качество видео: DVDRip
Формат видео: AVI
Видео: 720x544 (1.32:1); 29.970 fps; XviD build 47; 2089 kbps avg; 0.18 bit/pixel
Аудио: 48 kHz; AC3 Dolby Digital; 2/0 (L,R) ch; 192.00 kbps avg

Медиаинфо

Format : AVI
Format/Info : Audio Video Interleave
File size : 1.36 GiB
Duration : 1 h 25 min
Overall bit rate : 2 289 kb/s
Writing application : VirtualDubMod 1.5.4.1 (build 2178/release)
Writing library : VirtualDubMod build 2178/release
Video
ID : 0
Format : MPEG-4 Visual
Format profile : Advanced Simple@L5
Format settings, BVOP : 1
Format settings, QPel : No
Format settings, GMC : No warppoints
Format settings, Matrix : Custom
Codec ID : XVID
Codec ID/Hint : XviD
Duration : 1 h 25 min
Bit rate : 2 089 kb/s
Width : 720 pixels
Height : 544 pixels
Display aspect ratio : 4:3
Frame rate : 29.970 (30000/1001) FPS
Color space : YUV
Chroma subsampling : 4:2:0
Bit depth : 8 bits
Scan type : Progressive
Compression mode : Lossy
Bits/(Pixel*Frame) : 0.178
Stream size : 1.25 GiB (91%)
Writing library : XviD 1.2.0.dev47 (UTC 2006-11-01)
Audio
ID : 1
Format : AC-3
Format/Info : Audio Coding 3
Format settings, Endianness : Big
Codec ID : 2000
Duration : 1 h 25 min
Bit rate mode : Constant
Bit rate : 192 kb/s
Channel(s) : 2 channels
Channel positions : Front: L R
Sampling rate : 48.0 kHz
Frame rate : 31.250 FPS (1536 spf)
Bit depth : 16 bits
Compression mode : Lossy
Stream size : 117 MiB (8%)
Alignment : Split accross interleaves
Interleave, duration : 96 ms (2.88 video frames)
Interleave, preload duratio : 96 ms
Language : Russian
Service kind : Complete Main

Скриншоты

[cybertorrent.ru].t54.torrent 
Торрент: Зарегистрирован [ 2018-02-15 13:57 ] · 1286C867F70B2BE952680B86B6E53E71BC5126F3

Скачать .torrent

Скачать

14 KB

Статус: проверено
Скачан: 0 раз
Размер: 1,36 GB
Профиль [ЛС]
Показать сообщения:    

Текущее время: 26-Май 15:43

Часовой пояс: UTC ± 0



Вы не можете начинать темы
Вы не можете отвечать на сообщения
Вы не можете редактировать свои сообщения
Вы не можете удалять свои сообщения
Вы не можете голосовать в опросах
Вы не можете прикреплять файлы к сообщениям
Вы можете скачивать файлы