Начни сначала / Second Act (Питер Сигал / Peter Segal) [2018, США, драма, мелодрама, комедия, HDRip] MVO (HDRezka Studio) + Sub (Eng) + Original Eng

Ответить на тему
Статистика раздачи
Размер:  2,18 GB   |    Зарегистрирован:  56 минут   |    Скачан:  0 раз

Полного источника не было: Никогда

 
   
 
 
Автор Сообщение

солнышко ®

Пол: Не указан

Стаж: 6 дней

Сообщений: 49

Создавать темы Сегодня, в 13:05

[Цитировать]

Начни сначала / Second Act
Год выхода: 2018
Страна: США
Жанр: драма, мелодрама, комедия
Продолжительность: 01:43:46
Перевод: Любительский (многоголосый закадровый) | HDRezka Studio
Субтитры: английские
Оригинальная аудиодорожка: английский-Режиссер: Питер Сигал / Peter Segal-В ролях: Дженнифер Лопес, Ванесса Энн Хадженс, Леа Ремини, Трит Уильямс, Майло Вентимилья, Аннали Эшфорд, Шарлин Йи, Алан Айзенберг, Фредди Строма, Дэйв Фоли-О фильме: Когда Майя уже перестала надеяться, что ее мечты осуществятся, она случайно получает работу в большой корпорации. Теперь у нее есть шанс доказать снобам с Мэдисон Авеню, что врожденный талант и блестящий креатив так же важны, как и диплом престижного университета. И не имеет значения, что у тебя за спиной, — ведь никогда не поздно начать сначала!
-Качество: HDRip
Формат: AVI
Видео: 720x304 (2.37:1), 23.976 fps, XviD build 73 ~2354 kbps avg, 0.45 bit/pixel
Аудио 1: 48 kHz, AC3 Dolby Digital, 2/0 (L,R) ch, ~192 kbps avg | rus
Аудио 2: 48 kHz, AC3 Dolby Digital, 3/2 (L,C,R,l,r) + LFE ch, ~448 kbps | eng-[box]Сэмпл[/box]-

MediaInfo

Код:Формат : AVI
Формат/Информация : Audio Video Interleave
Профиль формата : OpenDML
Размер файла : 2,18 Гбайт
Продолжительность : 1 ч. 44 м.
Общий поток : 3002 Кбит/сек
Программа кодирования : VirtualDubMod 1.5.10.3 | www.virtualdub-fr.org || (build 2550/release)
Библиотека кодирования : VirtualDubMod build 2550/release
Видео
Идентификатор : 0
Формат : MPEG-4 Visual
Профиль формата : Advanced Simple@L5
Настройки формата : BVOP1 / Custom Matrix
Параметр BVOP формата : 1
Параметр QPel формата : Нет
Параметр GMC формата : Без точки перехода
Параметр матрицы формата : Выборочная
Идентификатор кодека : XVID
Идентификатор кодека/Подсказка : XviD
Продолжительность : 1 ч. 44 м.
Битрейт : 2344 Кбит/сек
Ширина : 720 пикселей
Высота : 304 пикселя
Соотношение сторон : 2,35:1
Частота кадров : 23,976 (24000/1001) кадра/сек
Цветовое пространство : YUV
Субдискретизация насыщенности : 4:2:0
Битовая глубина : 8 бит
Тип развёртки : Прогрессивная
Метод сжатия : С потерями
Бит/(Пиксели*Кадры) : 0.447
Размер потока : 1,70 Гбайт (78%)
Библиотека кодирования : XviD 73
Аудио #1
Идентификатор : 1
Формат : AC-3
Формат/Информация : Audio Coding 3
Коммерческое название : Dolby Digital
Идентификатор кодека : 2000
Продолжительность : 1 ч. 44 м.
Вид битрейта : Постоянный
Битрейт : 192 Кбит/сек
Каналы : 2 канала
Channel layout : L R
Частота : 48,0 КГц
Частота кадров : 31,250 кадров/сек (1536 SPF)
Битовая глубина : 16 бит
Метод сжатия : С потерями
Размер потока : 143 Мбайт (6%)
Выравнивание : Разделение по промежуткам
Продолжительность промежутка : 42 мс. (1,00 видеокадр)
Время предзагрузки промежутка : 500 мс.
Заголовок : Russian
ServiceKind/String : Complete Main
Аудио #2
Идентификатор : 2
Формат : AC-3
Формат/Информация : Audio Coding 3
Коммерческое название : Dolby Digital
Идентификатор кодека : 2000
Продолжительность : 1 ч. 44 м.
Вид битрейта : Постоянный
Битрейт : 448 Кбит/сек
Каналы : 6 каналов
Channel layout : L R C LFE Ls Rs
Частота : 48,0 КГц
Частота кадров : 31,250 кадров/сек (1536 SPF)
Битовая глубина : 16 бит
Метод сжатия : С потерями
Размер потока : 333 Мбайт (15%)
Выравнивание : Разделение по промежуткам
Продолжительность промежутка : 42 мс. (1,00 видеокадр)
Время предзагрузки промежутка : 500 мс.
Заголовок : English
ServiceKind/String : Complete Main

Скриншоты


Если ваш рейтинг упадет ниже 0,3, вы не сможете скачивать торренты! Подробнее о рейтинге.

[cybertorrent.ru].t541.torrent 
Торрент: Зарегистрирован [ Сегодня, в 13:08 ] · 9FF668E0F172C6C0A1E69A737B407E9B527DF678

Скачать .torrent

Скачать

11 KB

Статус: проверено
Скачан: 0 раз
Размер: 2,18 GB
terms.php
[Профиль] [ЛС]
Показать сообщения:    
Ответить на тему

Текущее время: 18-Мар 14:04

Часовой пояс: UTC ± 0



Вы не можете начинать темы
Вы не можете отвечать на сообщения
Вы не можете редактировать свои сообщения
Вы не можете удалять свои сообщения
Вы не можете голосовать в опросах
Вы не можете прикреплять файлы к сообщениям
Вы можете скачивать файлы

Боковая панель 2

Для добавления контента в данную боковую панель, отредактируйте указанные файлы:

  • library/language/*/html/sidebar2.html
  • style/templates/default/page_footer.tpl

Для отключения данной боковой панели, установите значение переменной $page_cfg['show_sidebar2'] в файле config.php в положение false.

Партнеры

Выражаем благодарность всем людям, внесшим материальную помощь в развитие TorrentPier II, указанным в файле contributors.txt.