Статистика раздачи
Размер:  2,5 GB   |    Зарегистрирован:  7 месяцев   |    Скачан:  0 раз

Полного источника не было: Никогда

   
 

Гость ®

Пол:
Не указан

Любовь по контракту
Год выпуска: 2019
Производство: Эволюшн Пикчерс
Жанр: мелодрама
Продолжительность: ~00:50:00 серия
Субтитры: нет
Режиссёр: Денис Елеонский
В ролях: Анна Арефьева, Андрей Носков, Полина Толстун, Антон Багров, Наталья Бурмистрова, Владимир Маслаков, Ирина Асаенок-Соловьева, Тата Хачатрян, Елизавета Шакира
Описание: Мужчина и женщина из разных социальных слоев – успешный бизнесмен Егор и пережившая трагедию медсестра Аня – встречаются в трудных обстоятельствах. Оба несвободны: муж Ани Сергей после автомобильной аварии оказался в инвалидном кресле и замкнулся в себе, жена Егора – красавица Лилия, прима-балерина – отказывается подарить ему радость отцовства, чтобы не жертвовать фигурой и карьерой. Аня ради денег на операцию мужа соглашается выносить для Егора и Лилии малыша, но постепенно понимает, что Егор смотрит на нее не просто как на суррогатную мать своего ребенка, а как на женщину… Как быть, если оба связаны браком, но хотят простого семейного счастья в отличие от своих «вторых половинок»? Что делать, если отношения по контракту вдруг перерастут в настоящее чувство? И найдут ли они оба силы, чтобы кардинально изменить свою судьбу? ...

Реклама: Нет.
Кино-театр
Все раздачи сериала
Sample
Качество: WEBRip - Files-x
Формат: AVI
Видео кодек: XviD
Аудио кодек: AC3
Видео: 720x400 (1.80:1), 25 fps, XviD build 73 ~1600 kbps avg, 0.222 bit/pixel
Аудио: 48.0 kHz, AC3 Dolby Digital, 2/0 (L,R) ch, ~ 192 kbps

MI

General
Complete name : D:\Любовь по контракту.(2019).WEB-DLRip.Files-x\01. Любовь по контракту.(2019).WEB-DLRip.Files-x..avi
Format : AVI
Format/Info : Audio Video Interleave
File size : 649 MiB
Duration : 50 min 23 s
Overall bit rate : 1 802 kb/s
Writing application : VirtualDubMod 1.5.10.3 | www.virtualdub-fr.org || (build 2550/release)
Writing library : VirtualDubMod build 2550/release
Video
ID : 0
Format : MPEG-4 Visual
Format profile : Advanced Simple@L5
Format settings : BVOP1 / Custom Matrix
Format settings, BVOP : 1
Format settings, QPel : No
Format settings, GMC : No warppoints
Format settings, Matrix : Custom
Codec ID : XVID
Codec ID/Hint : XviD
Duration : 50 min 23 s
Bit rate : 1 600 kb/s
Width : 720 pixels
Height : 400 pixels
Display aspect ratio : 16:9
Frame rate : 25.000 FPS
Color space : YUV
Chroma subsampling : 4:2:0
Bit depth : 8 bits
Scan type : Progressive
Compression mode : Lossy
Bits/(Pixel*Frame) : 0.222
Stream size : 577 MiB (89%)
Writing library : XviD 73
Audio
ID : 1
Format : AC-3
Format/Info : Audio Coding 3
Codec ID : 2000
Duration : 50 min 23 s
Bit rate mode : Constant
Bit rate : 192 kb/s
Channel(s) : 2 channels
Channel positions : Front: L R
Sampling rate : 48.0 kHz
Frame rate : 31.250 FPS (1536 SPF)
Bit depth : 16 bits
Compression mode : Lossy
Stream size : 69.2 MiB (11%)
Alignment : Split accross interleaves
Interleave, duration : 40 ms (1.00 video frame)
Interleave, preload duratio : 500 ms
Service kind : Complete Main

Скриншоты


[cybertorrent.ru].t548.torrent 
Торрент: Зарегистрирован [ 2019-03-18 13:08 ] · CE4781592ACDA4CA5A2AA227F22E45B7B0ABF933

Скачать .torrent

Скачать

13 KB

Статус: проверено
Скачан: 0 раз
Размер: 2,5 GB
terms.php
Показать сообщения:    

Текущее время: 19-Окт 04:07

Часовой пояс: UTC ± 0



Вы не можете начинать темы
Вы не можете отвечать на сообщения
Вы не можете редактировать свои сообщения
Вы не можете удалять свои сообщения
Вы не можете голосовать в опросах
Вы не можете прикреплять файлы к сообщениям
Вы можете скачивать файлы