Статистика раздачи
Размер:  24,77 GB   |    Зарегистрирован:  4 месяца 28 дней   |    Скачан:  0 раз

Полного источника не было: Никогда

 
     
 
 

Гость ®

Пол:
Не указан

Поиск: WWW / Search: WWW / Geomsaegeoreul Imnyeokhaseyo: WWW
Страна: Южная Корея
Год выпуска: 2019
Жанр: Фантастика, романтика
Продолжительность: 16 x ~01:08:00
Режиссер: Jung Ji-hyun Kwon Young-il
В ролях: Им Су Чжон, Ли Да Хи, Чон Хе Джин, Чан Ки Ён, Ли Джэ Ук, Чжи Сын Хён, О А Ён, Квон Хэ Хё, Сон Джи Хо, Ю Со Чжин, Йе Су Чжон, Ха Сын Ри, У Чжи Хён
Перевод: Любительский двухголосый
автор перевода: фансаб-группу Chenderella - озвучка группы ВК: Храм Дорам ТВ: Olyushka & Ruben Mendez
Описание:
Дорама рассказывает о реальных жизнях и историях успеха женщин 21 века, которые живут текущим днём и сфокусированы на самих себе вместо того, чтобы мечтать о замужестве и детях. В дораме будет показан их карьерный путь, наполненный различными эмоциями и опытом, их борьба с дискриминацией в обществе. Хотя многие представляют себе, что индустрия сайтов — конкурентоспособная сфера, дорама расскажет истории, которые никто из зрителей не может предсказать.
Пэ Да Ми (Им Су Чжон) – очень конкурентоспособная женщина, которая является руководителем крупнейшего веб-портала Unicorn. Работа всегда была для нее важнее, чем свидания, но это меняется, когда в ее жизни появляется Пак Мо Гын.
Пак Мо Гон (Чан Ки Ён) – генеральный директор и продюсер компании, которая создает музыку для игр. Он встречает Пэ Та Ми в галерее и влюбляется в ее соревновательный дух.
Чха Хён (Ли Да Хи) – главный менеджер веб-портала №2 Baro. Она бывшая дзюдоистка с горячим характером и любит смотреть дорамы с безумными сюжетными линиями. У нее никогда не было длительных отношений, поскольку все ее бывшие парни изменяли ей.
Сон Га Гён (Чон Хе Чжин) – директор компании, которая управляет Unicorn. Она состоит в браке с О Чжин У (Чи Сын Хён), чья семья управляет KU Group.

Доп.информация: работа над проектом

Роли озвучивали: Olyushka, Ruben Mendez
За перевод благодарим: фансаб-группу Chenderella
озвучка группы ВК: Храм Дорам ТВ: Olyushka & Ruben Mendez

Отличия

...
Рекламы казино не обнаружено!
Неотключаемые субтитры: Без хардсаба
Русские субтитры: Нет
Оригинальная аудиодорожка: Нет
Качество видео: HDTVRip
Разрешение: 720p
Видео кодек: H264
Формат: mkv
Видео: 1280х720 pixels, ~2900Кбит/с, 29.970 fps
Аудио: AC-3, 192 Кбит/сек, 48 КГц, 2 канала Язык Русский (в составе контейнера)

MI

Общее
Уникальный идентификатор : 66315390100223740369925562963203171682 (0x31E3E12AA1FC0F9694DD009DA39FA562)
Полное имя : Z:\[Корейские сериалы]\002\Поиск WWW [Храм Дорам_ТВ]\Search.WWW.E03.190612.720p-NEXT.mkv
Формат : Matroska
Версия формата : Version 4 / Version 2
Размер файла : 1,42 Гбайт
Продолжительность : 1 ч. 6 м.
Общий поток : 3038 Кбит/сек
Дата кодирования : UTC 2019-06-19 23:31:02
Программа кодирования : mkvmerge v32.0.0 ('Astral Progressions') 64-bit
Библиотека кодирования : libebml v1.3.7 + libmatroska v1.5.0
Видео
Идентификатор : 1
Формат : AVC
Формат/Информация : Advanced Video Codec
Профиль формата : High@L3.2
Настройки формата : CABAC / 3 Ref Frames
Параметр CABAC формата : Да
Параметр RefFrames формата : 3 кадра
Идентификатор кодека : V_MPEG4/ISO/AVC
Продолжительность : 1 ч. 6 м.
Битрейт : 2843 Кбит/сек
Ширина : 1280 пикселей
Высота : 720 пикселей
Соотношение сторон : 16:9
Режим частоты кадров : Постоянный
Частота кадров : 29,970 (30000/1001) кадров/сек
Цветовое пространство : YUV
Субдискретизация насыщенности : 4:2:0
Битовая глубина : 8 бит
Тип развёртки : Прогрессивная
Бит/(Пиксели*Кадры) : 0.103
Размер потока : 1,33 Гбайт (94%)
Default : Да
Forced : Нет
Аудио
Идентификатор : 2
Формат : AC-3
Формат/Информация : Audio Coding 3
Идентификатор кодека : A_AC3
Продолжительность : 1 ч. 6 м.
Вид битрейта : Постоянный
Битрейт : 192 Кбит/сек
Каналы : 2 канала
Расположение каналов : Front: L R
Частота : 48,0 КГц
Частота кадров : 31,250 кадров/сек (1536 SPF)
Битовая глубина : 16 бит
Метод сжатия : С потерями
Размер потока : 91,9 Мбайт (6%)
ServiceKind/String : Complete Main
Default : Да
Forced : Нет
[cybertorrent.ru].t5482.torrent 
Торрент: Зарегистрирован [ 2019-08-19 17:08 ] · 118936D630A9CD353C4E152F52BF96A3FB1DAFBA

Скачать .torrent

Скачать

32 KB

Статус: проверено
Скачан: 0 раз
Размер: 24,77 GB
terms.php
Показать сообщения:    

Текущее время: 17-Янв 13:48

Часовой пояс: UTC ± 0



Вы не можете начинать темы
Вы не можете отвечать на сообщения
Вы не можете редактировать свои сообщения
Вы не можете удалять свои сообщения
Вы не можете голосовать в опросах
Вы не можете прикреплять файлы к сообщениям
Вы можете скачивать файлы