Статистика раздачи
Размер:  21,71 GB   |    Зарегистрирован:  4 месяца 28 дней   |    Скачан:  0 раз

Полного источника не было: Никогда

 
     
 
 

Гость ®

Пол:
Не указан

Спаси меня 2 / Save Me 2 / 구해줘 2
Страна: Южная Корея
Год выпуска: 2019
Жанр: Психология, триллер, экшн
Продолжительность: 16 х ~01:05:00
Режиссер: Чо Гым Сан
В ролях: Чо Джэ Юн, Ом Тхэ Гу, Чхон Хо Джин, Исом, Ким Ён Мин, Пэк Су Чжан, Им Ха Рён, Ким Ён Сон, Хан Сон Хва
Перевод: Любительский двухголосый
автор перевода: Фансаб-группа АЛЬЯНС - озвучка группы ВК: Храм Дорам ТВ
Описание: Сюжет второго сезона гласит: «сельские жители загнаны в угол, их городок «спасает» ложная вера, но внезапно появляется человек, который пытается в одиночку противостоять этой вере».
Ом Тхэ Гу получил роль Ким Минчоля, который в старших классах был дзюдоистом, но из-за своей неспособности игнорировать несправедливость оказался в тюрьме. Однажды он узнает, что его родной город Вончури затопило, а все местные жители могут претендовать на компенсацию. Как только его освобождают, Минчоль возвращается в Вончури и начинает с подозрением присматриваться к местным жителям. А затем открывает тайну местной религии, в которую верят все окружающие.
Чхон Хо Джин исполнит роль таинственного Чхве Гёнсока, человека с внешне добрым нравом и приятной, заслуживающей доверия улыбкой. Жители Вончури, которые с подозрением относятся ко всем, кто обладает хоть какой-то властью, начинают доверять ему, когда он берет на себя инициативу в вопросе выплаты компенсаций. Благодаря доверию жителей района он быстро устанавливает здесь свою религию.
Исом получила роль младшей сестры Ким Минчоля, Ким Ёнсон. Разобравшись с жестоким отцом, безвольной матерью и смутным старшим братом, девушка упорно боролась с жизненными проблемами. Ее цель — как можно быстрее получить диплом медсестры и покинуть родной город. Чтобы добиться этого, она многократно пропускает учебные семестры, чтобы заработать деньги. Хотя она считает, что, если она продержится немного дольше, то сможет жить, как все, ее брат внезапно возвращается в Вончури и мешает девушке карты. Ее жизнь вновь превращается в ад, и как только она решает бросить свою мечту, Сон Чору протягивает ей руку помощи.
Ким Ён Мин играет роль священника Сон Чору, который меняет жителей сельской местности. Он выглядит идеальным церковнослужителем со своим нежным лицом, прекрасной улыбкой и манящим голосом. А прибыл в Вончури он по приглашению Чхве Гёнсока. Видя, как город постепенно меняется, он хочет правильно преподнести религию местным жителям. Однако, поскольку все больше жителей начинают полагаться на него, его изначальные амбиции исчезают.

Доп.информация: работа над проектом

Роли озвучивали: Olyushka, Ruben Mendez
За перевод благодарим: Фансаб-группа АЛЬЯНС
озвучка группы ВК: Храм Дорам ТВ

Отличия

...
Неотключаемые субтитры: Без хардсаба
Русские субтитры: Нет
Оригинальная аудиодорожка: Нет
Качество видео: HDTVRip
Разрешение: 720p
Видео кодек: H264
Формат: mkv
Видео: 1280х720 pixels, ~2200Кбит/с, 29.970 fps
Аудио: AC-3, 192 Кбит/сек, 48 КГц, 2 канала Язык Русский (в составе контейнера)

MI

Общее
Уникальный идентификатор : 127883530505259431750607928802587987700 (0x603578DA32204C29375E6672A8544EF4)
Полное имя : Z:\[Корейские сериалы]\002\Спаси меня 2 [Храм Дорам_ТВ]\Save.Me.S02E01.190508.720p-NEXT.mkv
Формат : Matroska
Версия формата : Version 4 / Version 2
Размер файла : 1,47 Гбайт
Продолжительность : 1 ч. 9 м.
Общий поток : 3024 Кбит/сек
Дата кодирования : UTC 2019-05-14 19:35:17
Программа кодирования : mkvmerge v32.0.0 ('Astral Progressions') 64-bit
Библиотека кодирования : libebml v1.3.7 + libmatroska v1.5.0
Видео
Идентификатор : 1
Формат : AVC
Формат/Информация : Advanced Video Codec
Профиль формата : High@L3.2
Настройки формата : CABAC / 3 Ref Frames
Параметр CABAC формата : Да
Параметр RefFrames формата : 3 кадра
Идентификатор кодека : V_MPEG4/ISO/AVC
Продолжительность : 1 ч. 9 м.
Битрейт : 2830 Кбит/сек
Ширина : 1280 пикселей
Высота : 720 пикселей
Соотношение сторон : 16:9
Режим частоты кадров : Постоянный
Частота кадров : 29,970 (30000/1001) кадров/сек
Цветовое пространство : YUV
Субдискретизация насыщенности : 4:2:0
Битовая глубина : 8 бит
Тип развёртки : Прогрессивная
Бит/(Пиксели*Кадры) : 0.102
Размер потока : 1,37 Гбайт (94%)
Default : Да
Forced : Нет
Аудио
Идентификатор : 2
Формат : AC-3
Формат/Информация : Audio Coding 3
Идентификатор кодека : A_AC3
Продолжительность : 1 ч. 9 м.
Вид битрейта : Постоянный
Битрейт : 192 Кбит/сек
Каналы : 2 канала
Расположение каналов : Front: L R
Частота : 48,0 КГц
Частота кадров : 31,250 кадров/сек (1536 SPF)
Битовая глубина : 16 бит
Метод сжатия : С потерями
Размер потока : 95,4 Мбайт (6%)
ServiceKind/String : Complete Main
Default : Да
Forced : Нет
Все сезоны от Храм Дорам ТВСезон 1, Сезон 2
[cybertorrent.ru].t5483.torrent 
Торрент: Зарегистрирован [ 2019-08-19 17:08 ] · 81AD87175BBD363CC8AF4B8F856A0B1F0A5D856C

Скачать .torrent

Скачать

29 KB

Статус: проверено
Скачан: 0 раз
Размер: 21,71 GB
terms.php
Показать сообщения:    

Текущее время: 17-Янв 13:34

Часовой пояс: UTC ± 0



Вы не можете начинать темы
Вы не можете отвечать на сообщения
Вы не можете редактировать свои сообщения
Вы не можете удалять свои сообщения
Вы не можете голосовать в опросах
Вы не можете прикреплять файлы к сообщениям
Вы можете скачивать файлы