Статистика раздачи
Размер:  700 MB   |    Зарегистрирован:  3 месяца 6 дней   |    Скачан:  0 раз

Полного источника не было: Никогда

 
   
 
 

lopster ®

Пол:
Не указан
Стаж:
3 месяца 6 дней
Сообщений:
612

Все могут короли
Год выпуска: 2008
Жанр: Комедия, мелодрама
Продолжительность: 02:03:03
Режиссер: Александр Черняев
В ролях: Гоша Куценко, Елена Полякова, Оскар Кучера, Маша Малиновская, Татьяна Васильева, Александр Тютин, Михаил Богдасаров, Нина Усатова, Александр Самойленко, Жерар Депардье
Описание: Каждому из нас хоть на денек хотелось стать кем-то другим, жить и чувствовать по-другому. Влекомая красотами ночного Петербурга, оставив служанок и гувернантку в глубине засыпающего дворца, французская принцесса (Елена Полякова) выбирается из окна на внеплановую прогулку.
Счастливчик Макс (Гоша Куценко) был немало удивлен, обнаружив в своей случайной знакомой полное сходство с недавно прибывшей в Россию принцессой Марией. И, не желая упускать «крупную рыбу», становится ее спутником.
Доп. информация: Rip сделан с раздачи http://cybertorrent.ru/viewtopic.php?p=8480115
Семпл: http://depositfiles.com/files/4706924
Все раздачи фильма: Все могут короли
Качество: DVDRip
Формат: AVI
Видео кодек: XviD
Аудио кодек: MP3
Видео: 608x272 (2.24:1), 25 fps, XviD build 47 ~668 kbps avg, 0.16 bit/pixel
Аудио: 48 kHz, MPEG Layer 3, 2 ch, ~113.35 kbps avg

MI

Код:Общее
Полное имя : C:\otkat\Видео\Все могут короли\Все могут короли.avi
Формат : AVI
Формат/Информация : Audio Video Interleave
Размер файла : 700 Мбайт
Продолжительность : 2 ч. 3 м.
Режим общего битрейта : Переменный
Общий поток : 795 Кбит/сек
Программа кодирования : VirtualDubMod 1.5.4.1 (build 2178/release)
Библиотека кодирования : VirtualDubMod build 2178/release
Видео
Идентификатор : 0
Формат : MPEG-4 Visual
Профиль формата : Advanced Simple@L5
Параметр BVOP формата : 1
Параметр QPel формата : Нет
Параметр GMC формата : Без точки перехода
Параметр матрицы формата : Выборочная
Идентификатор кодека : XVID
Идентификатор кодека/Подсказка : XviD
Продолжительность : 2 ч. 3 м.
Битрейт : 669 Кбит/сек
Ширина : 608 пикселей
Высота : 272 пикселя
Соотношение сторон : 2,25:1
Частота кадров : 25,000 кадров/сек
Цветовое пространство : YUV
Субдискретизация насыщенности : 4:2:0
Битовая глубина : 8 бит
Тип развёртки : Прогрессивная
Метод сжатия : С потерями
Бит/(Пиксели*Кадры) : 0.162
Размер потока : 589 Мбайт (84%)
Библиотека кодирования : XviD 1.2.0.dev47 (UTC 2006-11-01)
Аудио
Идентификатор : 1
Формат : MPEG Audio
Версия формата : Version 1
Профиль формата : Layer 3
Режим : Joint stereo
Идентификатор кодека : 55
Идентификатор кодека/Подсказка : MP3
Продолжительность : 2 ч. 3 м.
Вид битрейта : Переменный
Битрейт : 113 Кбит/сек
Номинальный битрейт : 128 Кбит/сек
Каналы : 2 канала
Частота : 48,0 КГц
Метод сжатия : С потерями
Размер потока : 99,7 Мбайт (14%)
Выравнивание : Соединение по промежуткам
Продолжительность промежутка : 24 мс. (0,60 видеокадр)
Время предзагрузки промежутка : 577 мс.
Библиотека кодирования : LAME3.97
Настройки программы : -m j -V 4 -q 2 -lowpass 17 --abr 128

Скриншоты

[cybertorrent.ru].t55.torrent 
Торрент: Зарегистрирован [ 2018-02-15 13:57 ] · A68DAC3C47C6D53E181415F2EA4085015F4260D8

Скачать .torrent

Скачать

14 KB

Статус: проверено
Скачан: 0 раз
Размер: 700 MB
Профиль [ЛС]
Показать сообщения:    

Текущее время: 21-Май 19:02

Часовой пояс: UTC ± 0



Вы не можете начинать темы
Вы не можете отвечать на сообщения
Вы не можете редактировать свои сообщения
Вы не можете удалять свои сообщения
Вы не можете голосовать в опросах
Вы не можете прикреплять файлы к сообщениям
Вы можете скачивать файлы