Статистика раздачи
Размер:  1,46 GB   |    Зарегистрирован:  7 месяцев 1 день   |    Скачан:  0 раз

Полного источника не было: Никогда

   
 

serzh ®

Пол:
Не указан
Стаж:
7 месяцев 7 дней
Сообщений:
384

Спонтанное возгорание / Spontaneous Combustion
Страна: США
Жанр: ужасы, триллер, фантастика
Год выпуска: 1990
Продолжительность: 01:36:52
Перевод: Авторский (одноголосый закадровый) Андрей Гаврилов
Перевод 2: Авторский (одноголосый закадровый) Сергей Визгунов
Субтитры: нет
Режиссер: Тоуб Хупер / Tobe Hooper
В ролях: Брэд Дуриф, Синтия Бейн, Джон Сайфер, Уильям Принц, Мелинда Диллон, Дей Янг, Теган Уэст, Майкл Кис Холл, Дейл Дай
Описание: В конце 50-х американские военные проводят испытания по влиянию водородной бомбы на экосистему. Выбрав добровольцев – семейную пару, военные заключают их в бункер недалеко от места испытаний. После взрыва у подопытных никаких побочных эффектов не обнаружили, однако через некоторое время начали происходит странные события. У рожденного женщиной мальчика постоянно держалась очень высокая температура. Родители, находящиеся в палате с младенцем, сгорели заживо. Мальчика, названного Сэмом, взяли под наблюдения спецслужбы.....
Начало 90-х. Сэм Креймер преподает в университете и живет обычной жизнью, при этом постоянно жалуясь на головные боли и повышенную температуру. У него есть девушка Рейчел и они планируют заводить семью. Но вокруг Сэма начинают твориться страшное: погибают от самовозгорания люди, с которыми он общался последним. Сэм понимает, что он каким-то образом виновен в смерти людей и начинает расследовать историю своего происхождения....
Сэмпл: http://multi-up.com/1226652
Качество видео: BDRip (Исходник BDRemux 1080p)
Формат видео: AVI
Видео: XviD 73, 720x400, (16:9), 23.976 fps, 1766 Кбит/с, 8 бит, 0.27 bit/pixel
Аудио: Русский (АС3, 2 ch (Front: L R), 48,0 KHz, 192 Kbps) Андрей Гаврилов
Аудио 2: Русский (АС3, 2 ch (Front: L R), 48,0 KHz, 192 Kbps) Сергей Визгунов

MediaInfo

Общее
Полное имя : D:\Фильмы на трекер\Спонтанное возгорание (триллер, ужасы 1990 год).avi
Формат : AVI
Формат/Информация : Audio Video Interleave
Размер файла : 1,46 Гбайт
Продолжительность : 1 ч. 36 м.
Общий поток : 2164 Кбит/сек
Программа кодирования : VirtualDubMod 1.5.10.2 (build 2540/release)
Библиотека кодирования : VirtualDubMod build 2540/release
Видео
Идентификатор : 0
Формат : MPEG-4 Visual
Профиль формата : Advanced Simple@L5
Параметр BVOP формата : 2
Параметр QPel формата : Нет
Параметр GMC формата : Без точки перехода
Параметр матрицы формата : Выборочная
Идентификатор кодека : XVID
Идентификатор кодека/Подсказка : XviD
Продолжительность : 1 ч. 36 м.
Битрейт : 1766 Кбит/сек
Ширина : 720 пикселей
Высота : 400 пикселей
Соотношение сторон : 16:9
Частота кадров : 23,976 (23976/1000) кадра/сек
Цветовое пространство : YUV
Субдискретизация насыщенности : 4:2:0
Битовая глубина : 8 бит
Тип развёртки : Прогрессивная
Метод сжатия : С потерями
Бит/(Пиксели*Кадры) : 0.256
Размер потока : 1,19 Гбайт (82%)
Библиотека кодирования : XviD 73
Аудио #1
Идентификатор : 1
Формат : AC-3
Формат/Информация : Audio Coding 3
Расширение режима : CM (complete main)
Параметр Endianness формата : Big
Идентификатор кодека : 2000
Продолжительность : 1 ч. 36 м.
Вид битрейта : Постоянный
Битрейт : 192 Кбит/сек
Каналы : 2 канала
Расположение каналов : Front: L R
Частота : 48,0 КГц
Частота кадров : 31,250 кадров/сек (1536 spf)
Метод сжатия : С потерями
Размер потока : 133 Мбайт (9%)
Выравнивание : Разделение по промежуткам
Продолжительность промежутка : 42 мс. (1,00 видеокадр)
Время предзагрузки промежутка : 500 мс.
Аудио #2
Идентификатор : 2
Формат : AC-3
Формат/Информация : Audio Coding 3
Расширение режима : CM (complete main)
Параметр Endianness формата : Big
Идентификатор кодека : 2000
Продолжительность : 1 ч. 36 м.
Вид битрейта : Постоянный
Битрейт : 192 Кбит/сек
Каналы : 2 канала
Расположение каналов : Front: L R
Частота : 48,0 КГц
Частота кадров : 31,250 кадров/сек (1536 spf)
Метод сжатия : С потерями
Размер потока : 133 Мбайт (9%)
Выравнивание : Разделение по промежуткам
Продолжительность промежутка : 42 мс. (1,00 видеокадр)
Время предзагрузки промежутка : 500 мс.

Скриншот c названием фильма

Скриншоты

[cybertorrent.ru].t551.torrent 
Торрент: Зарегистрирован [ 2019-03-18 13:08 ] · AE34683BA1CD2D8CD5C71257CF5FD8A6A7CDCF30

Скачать .torrent

Скачать

15 KB

Статус: проверено
Скачан: 0 раз
Размер: 1,46 GB
terms.php
Профиль ЛС
Показать сообщения:    

Текущее время: 20-Окт 11:17

Часовой пояс: UTC ± 0



Вы не можете начинать темы
Вы не можете отвечать на сообщения
Вы не можете редактировать свои сообщения
Вы не можете удалять свои сообщения
Вы не можете голосовать в опросах
Вы не можете прикреплять файлы к сообщениям
Вы можете скачивать файлы