Статистика раздачи
Размер:  713 MB   |    Зарегистрирован:  3 месяца 12 дней   |    Скачан:  0 раз

Полного источника не было: Никогда

 
   
 
 

Red ®

Пол:
Не указан
Стаж:
3 месяца 12 дней
Сообщений:
245

Comedy Club на Первом (выпуск 1)
Дата/Год выпуска: 10.11.2006
Страна: Россия
Жанр: Юмор
Продолжительность: 01:32:53
Перевод: Не требуется
Русские субтитры: нет
Телеканал: Первый канал

Описание: Долгие годы мы были в андерграунде отечественного юмора: все это время наши шутки доносились до вас с кассетных магнитофонов, установленных на задворках вещевых рынков. Наши песни прорывались до вас из затхлых подвалов пафосных и гламурных ночных клубов. Наши пестрые плакаты прятали от милиции продвинутые тинейджеры. Но сегодня все изменилось, потому что мы на Первом канале! И поверьте, дело совсем не в том, что мы доросли до Первого канала, просто Первый канал любезно согласился опуститься до нашего уровня и нам сделали предложение, от которого мы не смогли отказаться: потому что мы искренне любим канал, а во-вторых... 350 рублей на дороге не валяются. Итак, это Comedy на Первом!!!
Качество: SATRip
Формат: AVI
Видео: Xvid 512x384 25fps
Аудио: MP3 48000Hz stereo 109kbps

Афишка

Гарик Харламов, Тимур Батрутдинов
- проплаченный экзамен
- японская мелодрама
Макс Перлов, Дмитрий Сорокин, Тимур Родригес, Гарик Мартиросян
Музыкальные фантазии
- Led Zeppelin родилась в революционном Петрограде;
- Боб Марли родился в Адлере;
Павел Воля
- традиционное представление гостей в зале
(Андрей Батурин, Андрис Лиепа, Аркадий Укупник, Михаил Леонтьев, Сергей Глушко, Андрей Панин)
Гарик Харламов, Гарик Мартиросян
- "Поле чудес"
- "Кто хочет стать миллионером"
- "Кулинарные дела"
Тимур Родригес, Макс Перлов
- песенка Винни-Пуха
- политическое заявление
Сестры Зайцевы
- новости на Первом
- репортаж специального корреспондента Первого канала с завода по производству валерьянки
Дмитрий Сорокин
- про любовь
- армейская высокоинтеллектуальная
- правдивая
- неизвестному художнику посвящается
- про кино
- всем фанатам футбола посвящается
- самая актуальная в мире
Александр Ревва
- Стивен Сигал на тренировке (Гарик Харламов)
- Михаил Боярский дома с женой (Тимур Родригес)
Александр Незлобин
- уральский взгляд на ТВ
Гарик Мартиросян, Гарик Харламов, Рояль
- Моцарт и Сальери
Вадим Галыгин
- разговор о мультфильмах
Гарик Харламов, Тимур Батрутдинов
- экзамен актерского мастерства
Постскриптум
Гарик Мартиросян
- новая общественная конституция России
- Ералаш. Самый отвратительный ученик в РФ (Гарик Харламов)
- экзамен в Пермский джазовый техникум
- случай с Шеварнадзе (Тимур Батрутдинов)

Скриншоты

MediaInfo

General
Format : AVI
Format/Info : Audio Video Interleave
File size : 713 MiB
Duration : 1 h 32 min
Overall bit rate mode : Variable
Overall bit rate : 1 074 kb/s
Writing application : Nandub v2.01 The advanced compression technology is developed by Neiromaster
Writing library : Nandub 2.01 modified by Neiromaster
Video
ID : 0
Format : MPEG-4 Visual
Format profile : Advanced Simple@L5
Format settings, BVOP : 1
Format settings, QPel : No
Format settings, GMC : No warppoints
Format settings, Matrix : Custom
Codec ID : XVID
Codec ID/Hint : XviD
Duration : 1 h 32 min
Bit rate : 952 kb/s
Width : 512 pixels
Height : 384 pixels
Display aspect ratio : 4:3
Frame rate : 25.000 FPS
Color space : YUV
Chroma subsampling : 4:2:0
Bit depth : 8 bits
Scan type : Progressive
Compression mode : Lossy
Bits/(Pixel*Frame) : 0.194
Stream size : 632 MiB (89%)
Writing library : XviD 1.2.0.dev47 (UTC 2006-11-01)
Audio
ID : 1
Format : MPEG Audio
Format version : Version 1
Format profile : Layer 3
Mode : Joint stereo
Mode extension : MS Stereo
Codec ID : 55
Codec ID/Hint : MP3
Duration : 1 h 32 min
Bit rate mode : Variable
Bit rate : 109 kb/s
Channel(s) : 2 channels
Sampling rate : 48.0 kHz
Compression mode : Lossy
Stream size : 72.4 MiB (10%)
Alignment : Aligned on interleaves
Interleave, duration : 24 ms (0.60 video frame)
Interleave, preload duration : 214 ms
Рип предоставлен: Vaka
Афишка: PiXeL
Команда желает вам веселого просмотра!
Все выпуски Comedy Club на Первом
[cybertorrent.ru].t557.torrent 
Торрент: Зарегистрирован [ 2018-02-15 20:27 ] · 375F6278D68FA052A2202D87B5AF3E641EBA88F1

Скачать .torrent

Скачать

14 KB

Статус: проверено
Скачан: 0 раз
Размер: 713 MB
Профиль [ЛС]
Показать сообщения:    

Текущее время: 28-Май 08:11

Часовой пояс: UTC ± 0



Вы не можете начинать темы
Вы не можете отвечать на сообщения
Вы не можете редактировать свои сообщения
Вы не можете удалять свои сообщения
Вы не можете голосовать в опросах
Вы не можете прикреплять файлы к сообщениям
Вы можете скачивать файлы