Статистика раздачи
Размер:  703 MB   |    Зарегистрирован:  2 месяца 10 дней   |    Скачан:  0 раз

Полного источника не было: Никогда

 
   
 
 

lika ®

Пол:
Не указан
Стаж:
7 месяцев 4 дня
Сообщений:
363

Чебурашка / Cheburashka
Страна: Россия, Япония
Жанр: детский, семейный
Продолжительность: 1:19:01
Год выпуска: 2010
Перевод: Не требуется (Оригинал [лицензия] iTunes)
Русские субтитры: нет
Режиссёр: Макото Накамура / Makoto Nakamura
Роли озвучивали: Лариса Брохман (Чебурашка), Владимир Ферапонтов (крокодил Гена), Ольга Зверева (Маша), Дмитрий Филимонов (Шапокляк), Александр Пожаров (фокусник), Александр Груздев (лев Чандр), Ольга Шорохова (Галя), Гарри Бардин (крокодил Гена), Владимир Орёл, Антон Морозов
Описание: Мультфильм из трех историй: «Чебурашка и цирк», «Чебурашка идет в зоопарк» и «Советы Шапокляк». Прологом служит история о появлении Чебурашки в ящике из-под апельсинов, его знакомстве с крокодилом Геной и обретении друзей.
«Чебурашка и цирк» - история о дружбе и мечте. Гена и Чебурашка помогают девочке Маше научиться ходить по канату и осуществляют ее заветное желание - выступать в цирке. В серии «Чебурашка идет в зоопарк» Гена заболел, и Чебурашка отправился вместо него «работать крокодилом» в зоопарке. Возникает веселая путаница. Заключительная история - «Советы Шапокляк». Герои приходят на помощь фокуснику, потерявшему внучку. А Шапокляк открывает бюро платных бесполезных советов.
Семпл: http://multi-up.com/1086306
Качество: WEBRip
Формат: AVI
Видео: XVID, 688 x 384 (16:9), 25.000 fps, 1 106 Kbps, 8 bit
Аудио: MP3, 44.1 KHz, 2 ch, 128 Kbps
Субтитры: отсутствуют

Подробные технические данные

General
Полное имя : Cheburashka.2014.web-dlrip.700mb.avi
Формат : AVI
Формат/Информация : Audio Video Interleave
Размер файла : 703 MiB
Продолжительность : 1h 19mn
Общий поток : 1 243 Kbps
Программа кодирования : VirtualDubMod 1.5.10.3 | www.virtualdub-fr.org || (build 2550/release)
Библиотека кодирования : VirtualDubMod build 2550/release
Video
Идентификатор : 0
Формат : MPEG-4 Visual
Профиль формата : Advanced Simple@L5
Параметр BVOP формата : 2
Параметр QPel формата : No
Параметр GMC формата : No warppoints
Параметр матрицы формата : Default (MPEG)
Идентификатор кодека : XVID
Идентификатор кодека/Подсказка : XviD
Продолжительность : 1h 19mn
Битрейт : 1 106 Kbps
Ширина : 688 pixels
Высота : 384 pixels
Соотношение сторон : 16:9
Частота кадров : 25.000 fps
Цветовое пространство : YUV
Субдискретизация насыщенности : 4:2:0
Битовая глубина : 8 bits
Тип развёртки : Progressive
Метод сжатия : Lossy
Бит/(Пиксели*Кадры) : 0.167
Размер потока : 625 MiB (89%)
Библиотека кодирования : XviD 1.2.1 (UTC 2008-12-04)
Audio
Идентификатор : 1
Формат : MPEG Audio
Версия формата : Version 1
Профиль формата : Layer 3
Идентификатор кодека : 55
Идентификатор кодека/Подсказка : MP3
Продолжительность : 1h 19mn
Вид битрейта : Constant
Битрейт : 128 Kbps
Каналы : 2 channels
Частота : 44.1 KHz
Метод сжатия : Lossy
Размер потока : 72.3 MiB (10%)
Выравнивание : Split accross interleaves
Продолжительность промежутка : 40 ms (1.00 video frame)
Время предзагрузки промежутка : 500 ms
Библиотека кодирования : LAME3.99r
Настройки программы : -m s -V 4 -q 2 -lowpass 17 -b 128

Скриншоты

[cybertorrent.ru].t56007.torrent 
Торрент: Зарегистрирован [ 2018-07-08 17:53 ] · A647C25CF847ACEE1DEBC861142292E56FD2AF82

Скачать .torrent

Скачать

14 KB

Статус: проверено
Скачан: 0 раз
Размер: 703 MB
Профиль [ЛС]
Показать сообщения:    

Текущее время: 19-Сен 17:36

Часовой пояс: UTC ± 0



Вы не можете начинать темы
Вы не можете отвечать на сообщения
Вы не можете редактировать свои сообщения
Вы не можете удалять свои сообщения
Вы не можете голосовать в опросах
Вы не можете прикреплять файлы к сообщениям
Вы можете скачивать файлы
Torrents24.ru открытый BitTorrent Torrents24.pl открытый BitTorrent CyberTorrent.ru открытый BitTorrent BtList.ru рейтинг BitTorrent трекеров Яндекс.Метрика