Статистика раздачи
Размер:  278 MB   |    Зарегистрирован:  2 месяца 15 дней   |    Скачан:  0 раз

Полного источника не было: Никогда

 
   
 
 

Keeper ®

Пол:
Не указан
Стаж:
7 месяцев 8 дней
Сообщений:
507

Константин Титар / Юный Бетховен
Жанр: Klassikal
Страна-производитель диска: Россия
Год издания диска: 2004
Издатель (лейбл): Детское музыкальное издательство "Твик"
Страна: Россия
Аудиокодек: FLAC
Тип рипа: tracks+cue
Битрейт аудио: lossless
Продолжительность: 54:21:42
Источник: Собственный рип
Наличие сканов в содержимом раздачи: да
Треклист:
1. Вступление.
2. “Лунная соната” III ч.
3.Трудное детство.
4. “Кориолан”. Увертюра.
5. День рождения.
6. “Аппассионата” - I ч.
7. Скерцо из симфонии N 3
8.“Эгмонт”. Увертюра.
9.Первый удар судьбы.
10.“Патетическая соната” - I ч.
11. У Моцарта.
12. Симфония N 5 - I ч.
13. Финал.

Скриншот спектра частот

Лог снятия рипа

Exact Audio Copy V1.0 beta 4 from 7. December 2014
Отчёт EAC об извлечении, выполненном 13. февраля 2015, 12:21
Konstantin Titar / Bethoven
Дисковод: TSSTcorpCDDVDW SH-224DB Adapter: 1 ID: 0
Режим чтения : Достоверность
Использование точного потока : Да
Отключение кэша аудио : Да
Использование указателей C2 : Нет
Коррекция смещения при чтении : 6
Способность читать области Lead-in и Lead-out : Нет
Заполнение пропущенных сэмплов тишиной : Да
Удаление блоков с тишиной в начале и конце : Нет
При вычислениях CRC использовались нулевые сэмплы : Да
Интерфейс : Встроенный Win32-интерфейс для Win NT/2000
Выходной формат : Пользовательский кодировщик
Выбранный битрейт : 1024 kBit/s
Качество : Высокий
Добавление ID3-тега : Нет
Утилита сжатия : C:\Program Files (x86)\Exact Audio Copy\Flac\flac.exe
Дополнительные параметры : -V -8 -T "Date=%year%" -T "Genre=%genre%" %source%
TOC извлечённого CD
Трек | Старт | Длительность | Начальный сектор | Конечный сектор
---------------------------------------------------------------------
1 | 0:00.00 | 1:19.16 | 0 | 5940
2 | 1:19.16 | 5:34.46 | 5941 | 31036
3 | 6:53.62 | 3:37.49 | 31037 | 47360
4 | 10:31.36 | 4:47.45 | 47361 | 68930
5 | 15:19.06 | 3:20.66 | 68931 | 83996
6 | 18:39.72 | 5:37.19 | 83997 | 109290
7 | 24:17.16 | 3:16.24 | 109291 | 124014
8 | 27:33.40 | 7:26.21 | 124015 | 157485
9 | 34:59.61 | 2:38.11 | 157486 | 169346
10 | 37:37.72 | 5:56.24 | 169347 | 196070
11 | 43:34.21 | 4:31.58 | 196071 | 216453
12 | 48:06.04 | 5:37.72 | 216454 | 241800
13 | 53:44.01 | 0:37.42 | 241801 | 244617
Характеристики диапазона извлечения и сообщения об ошибках
Выбранный диапазон
Имя файла E:\Музыка\Konstantin Titar - Bethoven\Konstantin Titar - Bethoven.wav
Пиковый уровень 100.0 %
Скорость извлечения 4.8 X
Качество диапазона 99.9 %
CRC копии B95DB7E4
Копирование... OK
Ошибок не произошло
Конец отчёта
---- CUETools DB Plugin V2.1.4
[CTDB TOCID: jYd8c5_h32UhnFZas2f6aCk01Dw-] disk not present in database
Submit result: jYd8c5_h32UhnFZas2f6aCk01Dw- has been uploaded
Доп. информация: Аранжировщик и исполнитель Константин Титар.
О жизни и творчестве Л.В.Бетховена рассказывает Алина Михайлова (1,3,5,9,11,13).
Фонограмма записана в 2004 г.

Об альбоме (сборнике)

Cерия "Классическая музыка детям"
[cybertorrent.ru].t56039.torrent 
Торрент: Зарегистрирован [ 2018-07-08 17:53 ] · 8CA5F377410E50CDAE9E7E87475780D3F309A2E6

Скачать .torrent

Скачать

12 KB

Статус: проверено
Скачан: 0 раз
Размер: 278 MB
Профиль [ЛС]
Показать сообщения:    

Текущее время: 23-Сен 20:19

Часовой пояс: UTC ± 0



Вы не можете начинать темы
Вы не можете отвечать на сообщения
Вы не можете редактировать свои сообщения
Вы не можете удалять свои сообщения
Вы не можете голосовать в опросах
Вы не можете прикреплять файлы к сообщениям
Вы можете скачивать файлы
Torrents24.ru открытый BitTorrent Torrents24.pl открытый BitTorrent CyberTorrent.ru открытый BitTorrent BtList.ru рейтинг BitTorrent трекеров Яндекс.Метрика