Статистика раздачи
Размер:  27,98 GB   |    Зарегистрирован:  4 месяца 6 дней   |    Скачан:  0 раз

Полного источника не было: Никогда

 
   
 
 

koljan ®

Пол:
Не указан
Стаж:
9 месяцев
Сообщений:
295

Видеоканал "Один дома" 58 выпусков + кадр дня 12 выпусков
Дата/Год выпуска: 2006-2008
Страна: Россия
Жанр: детская информационно-развлекательная передача
Продолжительность: 58 х00:30:00
Перевод: Не требуется
Телеканал: Сети НН
Описание: Нижегородская детская информационно-развлекательная передача. Кроме новостей у видеоканала "Один дома" есть такие рубрики как погода, гороскоп, кто в доме хозяин (где парни делятся своими кулинарными рецептами), наш ералаш (где одиндомовские артисты разыгрывают смешные ситуации из жизни школьников), скажи-ка дядя (где юные корреспонденты задают вопросы из школьной программы взрослым мужчинам), любимец публики (где берут интервью у знаменитостей), чудо природы, вопрос на засыпку, вредные советы, фокус-покус, большая перемена, детская неожиданность и другие.
Программа "Кадр дня" следовала по окончании "Вечера трудного дня" по каналу сети НН. В ней показывали смешные кадры, присланные в студию зрителями. Здесь только выпуски с одиндомовскими ведущими, и то не все.
качество: TVRip
формат: AVI
Видео: XviD, 640х480, 4:3, 2300 Кбит/сек, 25,000 кадров/сек
Аудио: MP3, 192 Кбит/сек, 48,0 КГц, 2 канала

MediaInfo

Общее
Полное имя : D:\Раздавать\видеоканал Один дома\1 дома с канала биств\1 дома 1.avi
Формат : AVI
Формат/Информация : Audio Video Interleave
Размер файла : 520 Мбайт
Продолжительность : 29 м.
Общий поток : 2505 Кбит/сек
Программа кодирования : Lavf57.26.100
Видео
Идентификатор : 0
Формат : MPEG-4 Visual
Профиль формата : Simple@L1
Параметр BVOP формата : Нет
Параметр QPel формата : Нет
Параметр GMC формата : Без точки перехода
Параметр матрицы формата : Default (H.263)
Идентификатор кодека : XVID
Идентификатор кодека/Подсказка : XviD
Продолжительность : 29 м.
Битрейт : 2300 Кбит/сек
Ширина : 640 пикселей
Высота : 480 пикселей
Соотношение сторон : 4:3
Частота кадров : 25,000 кадров/сек
Цветовое пространство : YUV
Субдискретизация насыщенности : 4:2:0
Битовая глубина : 8 бит
Тип развёртки : Прогрессивная
Метод сжатия : С потерями
Бит/(Пиксели*Кадры) : 0.299
Размер потока : 478 Мбайт (92%)
Библиотека кодирования : Lavc57.27.100
Аудио
Идентификатор : 1
Формат : MPEG Audio
Версия формата : Version 1
Профиль формата : Layer 3
Режим : Joint stereo
Расширение режима : MS Stereo
Идентификатор кодека : 55
Идентификатор кодека/Подсказка : MP3
Продолжительность : 29 м.
Вид битрейта : Постоянный
Битрейт : 192 Кбит/сек
Каналы : 2 канала
Частота : 48,0 КГц
Метод сжатия : С потерями
Размер потока : 39,9 Мбайт (8%)
Выравнивание : Соединение по промежуткам
Продолжительность промежутка : 24 мс. (0,60 видеокадр)
Время предзагрузки промежутка : 24 мс.
Библиотека кодирования : LAME3.99.5
[cybertorrent.ru].t56048.torrent 
Торрент: Зарегистрирован [ 2018-07-08 17:53 ] · 9308DE7F72103FD2D54290B35F249773C76408E2

Скачать .torrent

Скачать

146 KB

Статус: проверено
Скачан: 0 раз
Размер: 27,98 GB
Профиль [ЛС]
Показать сообщения:    

Текущее время: 15-Ноя 14:28

Часовой пояс: UTC ± 0



Вы не можете начинать темы
Вы не можете отвечать на сообщения
Вы не можете редактировать свои сообщения
Вы не можете удалять свои сообщения
Вы не можете голосовать в опросах
Вы не можете прикреплять файлы к сообщениям
Вы можете скачивать файлы
Torrents24.ru открытый BitTorrent Torrents24.pl открытый BitTorrent CyberTorrent.ru открытый BitTorrent BtList.ru рейтинг BitTorrent трекеров Яндекс.Метрика