Статистика раздачи
Размер:  213 MB   |    Зарегистрирован:  2 месяца 15 дней   |    Скачан:  0 раз

Полного источника не было: Никогда

 
   
 
 

Keeper ®

Пол:
Не указан
Стаж:
7 месяцев 8 дней
Сообщений:
507

Аркадий Островский - Спят усталые игрушки (Песни для детей) {Олег Анофриев, Ева Синельникова}
Жанр: Детская музыка
Носитель: CD
Страна-производитель диска: Россия
Год издания диска: 2003
Издатель (лейбл): Bomba Music
Номер по каталогу: BoMB 033-72
Страна: Россия
Аудиокодек: FLAC
Тип рипа: tracks+.cue
Битрейт аудио: lossless
Продолжительность: 34:48
Источник: диск из моей коллекции
Наличие сканов в содержимом раздачи: да
Треклист:
01. Начинаем, начинаем (З.Петрова) - 1:26
02. Угадай-ка (С.Богомазов) - 1:00
03. Про осу (З.Петрова) - 1:13
04. Спят усталые игрушки (З.Петрова) - 2:30
05. Тик-так (З.Петрова) - 1:14
06. Кролик (З.Петрова) - 1:18
07. Галоши (З.Петрова) - 2:04
08. До, ре, ми, фа, соль (З.Петрова) - 2:30
09. Школьная полька (Л.Ошанин) - 2:51
10. Пусть всегда будет солнце (Л.Ошанин) - 3:32
11. Нет таких на свете дел (З.Петрова) - 1:11
12. Кто справляется с делами (З.Петрова) - 1:13
13. Песенка про неряху (З.Петрова) - 1:20
14. Песенка про лень (З.Петрова) - 1:06
15. Качели (З.Петрова) - 0:51
16. Хорошо, что снежок пошел (З.Петрова) - 1:17
17. Азбука (З.Петрова) - 1:31
18. Поздравительный пирог (З.Петрова) - 0:39
19. Песенка о морковке (З.Петрова) - 1:28
20. Сосулька (З.Петрова) - 0:39
21. Тень (З.Петрова) - 0:31
22. Дождик (З.Петрова) - 0:39
23. Песенка с гармошкой (З.Петрова) - 1:00
24. Песенка про носы (З.Петрова) - 1:45
Состав:
Аркадий Островский - композитор
#1-10:
Олег Анофриев, инструментальный ансамбль под руководством Б. Фрумкина.
#11-24:
Ева Синельникова, Инстр. ансамбль "Мелодия" под руководством Г. Гараняна.

Лог создания рипа

Exact Audio Copy V1.0 beta 4 from 7. December 2014
EAC extraction logfile from 28. February 2015, 18:04
Аркадий Островский / Спят усталые игрушки
Used drive : ASUS DRW-24B1LT Adapter: 1 ID: 1
Read mode : Secure
Utilize accurate stream : Yes
Defeat audio cache : Yes
Make use of C2 pointers : No
Read offset correction : 6
Overread into Lead-In and Lead-Out : No
Fill up missing offset samples with silence : Yes
Delete leading and trailing silent blocks : No
Null samples used in CRC calculations : Yes
Used interface : Native Win32 interface for Win NT & 2000
Gap handling : Appended to previous track
Used output format : User Defined Encoder
Selected bitrate : 768 kBit/s
Quality : High
Add ID3 tag : No
Command line compressor : C:\Program Files\Exact Audio Copy\Flac\flac.exe
Additional command line options : -8 -V -T "ARTIST=%artist%" -T "TITLE=%title%" -T "ALBUM=%albumtitle%" -T "DATE=%year%" -T "TRACKNUMBER=%tracknr%" -T "TOTALTRACKS=%numtracks%" -T "GENRE=%genre%" -T "ALBUMARTIST=%albumartist%" -T "ALBUM ARTIST=%albumartist%" -T "COMMENT=EAC Secure Mode, Test & Copy, AccurateRip, FLAC -8" %source%
TOC of the extracted CD
Track | Start | Length | Start sector | End sector
---------------------------------------------------------
1 | 0:00.00 | 1:26.37 | 0 | 6486
2 | 1:26.37 | 1:00.15 | 6487 | 11001
3 | 2:26.52 | 1:13.25 | 11002 | 16501
4 | 3:40.02 | 2:30.36 | 16502 | 27787
5 | 6:10.38 | 1:13.53 | 27788 | 33315
6 | 7:24.16 | 1:17.45 | 33316 | 39135
7 | 8:41.61 | 2:04.04 | 39136 | 48439
8 | 10:45.65 | 2:29.54 | 48440 | 59668
9 | 13:15.44 | 2:50.38 | 59669 | 72456
10 | 16:06.07 | 3:31.63 | 72457 | 88344
11 | 19:37.70 | 1:11.14 | 88345 | 93683
12 | 20:49.09 | 1:13.16 | 93684 | 99174
13 | 22:02.25 | 1:20.23 | 99175 | 105197
14 | 23:22.48 | 1:06.09 | 105198 | 110156
15 | 24:28.57 | 0:50.38 | 110157 | 113944
16 | 25:19.20 | 1:16.41 | 113945 | 119685
17 | 26:35.61 | 1:30.71 | 119686 | 126506
18 | 28:06.57 | 0:38.70 | 126507 | 129426
19 | 28:45.52 | 1:27.58 | 129427 | 136009
20 | 30:13.35 | 0:38.41 | 136010 | 138900
21 | 30:52.01 | 0:30.74 | 138901 | 141224
22 | 31:23.00 | 0:39.37 | 141225 | 144186
23 | 32:02.37 | 1:00.28 | 144187 | 148714
24 | 33:02.65 | 1:44.66 | 148715 | 156580
Track 1
Filename F:\audio\01 - Начинаем, начинаем.wav
Pre-gap length 0:00:02.00
Peak level 93.6 %
Extraction speed 1.3 X
Track quality 100.0 %
Test CRC 42CCAF18
Copy CRC 42CCAF18
Track not present in AccurateRip database
Copy OK
Track 2
Filename F:\audio\02 - Угадай-ка.wav
Peak level 94.8 %
Extraction speed 1.2 X
Track quality 100.0 %
Test CRC 0D52C2F1
Copy CRC 0D52C2F1
Track not present in AccurateRip database
Copy OK
Track 3
Filename F:\audio\03 - Про осу.wav
Peak level 100.0 %
Extraction speed 1.4 X
Track quality 100.0 %
Test CRC 020C3B28
Copy CRC 020C3B28
Track not present in AccurateRip database
Copy OK
Track 4
Filename F:\audio\04 - Спят усталые игрушки.wav
Peak level 99.9 %
Extraction speed 1.8 X
Track quality 100.0 %
Test CRC 4AF1E85D
Copy CRC 4AF1E85D
Track not present in AccurateRip database
Copy OK
Track 5
Filename F:\audio\05 - Тик-так.wav
Peak level 100.0 %
Extraction speed 0.8 X
Track quality 99.8 %
Test CRC 4559A0CC
Copy CRC 4559A0CC
Track not present in AccurateRip database
Copy OK
Track 6
Filename F:\audio\06 - Кролик.wav
Peak level 100.0 %
Extraction speed 1.6 X
Track quality 100.0 %
Test CRC 8A217423
Copy CRC 8A217423
Track not present in AccurateRip database
Copy OK
Track 7
Filename F:\audio\07 - Галоши.wav
Peak level 100.0 %
Extraction speed 1.9 X
Track quality 100.0 %
Test CRC 061B91E3
Copy CRC 061B91E3
Track not present in AccurateRip database
Copy OK
Track 8
Filename F:\audio\08 - До, ре, ми, фа, соль.wav
Peak level 100.0 %
Extraction speed 1.3 X
Track quality 99.9 %
Test CRC F6417774
Copy CRC F6417774
Track not present in AccurateRip database
Copy OK
Track 9
Filename F:\audio\09 - Школьная полька.wav
Peak level 94.3 %
Extraction speed 2.2 X
Track quality 100.0 %
Test CRC 28BA57C5
Copy CRC 28BA57C5
Track not present in AccurateRip database
Copy OK
Track 10
Filename F:\audio\10 - Пусть всегда будет солнце.wav
Peak level 94.3 %
Extraction speed 1.7 X
Track quality 99.9 %
Test CRC 48951174
Copy CRC 48951174
Track not present in AccurateRip database
Copy OK
Track 11
Filename F:\audio\11 - Нет таких на свете дел.wav
Peak level 99.9 %
Extraction speed 1.9 X
Track quality 100.0 %
Test CRC 55F17AA8
Copy CRC 55F17AA8
Track not present in AccurateRip database
Copy OK
Track 12
Filename F:\audio\12 - Кто справляется с делами.wav
Peak level 99.9 %
Extraction speed 2.0 X
Track quality 100.0 %
Test CRC 094FC339
Copy CRC 094FC339
Track not present in AccurateRip database
Copy OK
Track 13
Filename F:\audio\13 - Песенка про неряху.wav
Peak level 99.9 %
Extraction speed 1.1 X
Track quality 99.8 %
Test CRC 49BD9B89
Copy CRC 49BD9B89
Track not present in AccurateRip database
Copy OK
Track 14
Filename F:\audio\14 - Песенка про лень.wav
Peak level 99.8 %
Extraction speed 2.0 X
Track quality 100.0 %
Test CRC 9DAC64B8
Copy CRC 9DAC64B8
Track not present in AccurateRip database
Copy OK
Track 15
Filename F:\audio\15 - Качели.wav
Peak level 99.4 %
Extraction speed 1.8 X
Track quality 100.0 %
Test CRC 457703C5
Copy CRC 457703C5
Track not present in AccurateRip database
Copy OK
Track 16
Filename F:\audio\16 - Хорошо, что снежок пошел.wav
Peak level 99.6 %
Extraction speed 2.1 X
Track quality 100.0 %
Test CRC D47C3746
Copy CRC D47C3746
Track not present in AccurateRip database
Copy OK
Track 17
Filename F:\audio\17 - Азбука.wav
Peak level 100.0 %
Extraction speed 1.2 X
Track quality 99.8 %
Test CRC 65436E7D
Copy CRC 65436E7D
Track not present in AccurateRip database
Copy OK
Track 18
Filename F:\audio\18 - Поздравительный пирог.wav
Peak level 99.9 %
Extraction speed 1.6 X
Track quality 100.0 %
Test CRC C6CC74E8
Copy CRC C6CC74E8
Track not present in AccurateRip database
Copy OK
Track 19
Filename F:\audio\19 - Песенка о морковке.wav
Peak level 99.7 %
Extraction speed 2.3 X
Track quality 100.0 %
Test CRC DBC55D1C
Copy CRC DBC55D1C
Track not present in AccurateRip database
Copy OK
Track 20
Filename F:\audio\20 - Сосулька.wav
Peak level 100.0 %
Extraction speed 1.6 X
Track quality 100.0 %
Test CRC 3593C7CB
Copy CRC 3593C7CB
Track not present in AccurateRip database
Copy OK
Track 21
Filename F:\audio\21 - Тень.wav
Peak level 100.0 %
Extraction speed 1.5 X
Track quality 100.0 %
Test CRC C450A32B
Copy CRC C450A32B
Track not present in AccurateRip database
Copy OK
Track 22
Filename F:\audio\22 - Дождик.wav
Peak level 100.0 %
Extraction speed 0.7 X
Track quality 99.7 %
Test CRC 377E6268
Copy CRC 377E6268
Track not present in AccurateRip database
Copy OK
Track 23
Filename F:\audio\23 - Песенка с гармошкой.wav
Peak level 99.9 %
Extraction speed 1.0 X
Track quality 99.8 %
Test CRC AAE216BE
Copy CRC AAE216BE
Track not present in AccurateRip database
Copy OK
Track 24
Filename F:\audio\24 - Песенка про носы.wav
Peak level 99.6 %
Extraction speed 2.6 X
Track quality 100.0 %
Test CRC 50F80AA9
Copy CRC 50F80AA9
Track not present in AccurateRip database
Copy OK
None of the tracks are present in the AccurateRip database
No errors occurred
End of status report
---- CUETools DB Plugin V2.1.4
[CTDB TOCID: av368ULtacVPpAzAWMfQFU6xNHk-] disk not present in database
Submit result: av368ULtacVPpAzAWMfQFU6xNHk- has been uploaded
==== Log checksum 13024994B35447C0BC857C64A05011806938D6850D188971B9A291ADE38440B7 ====

Содержание индексной карты (.CUE)

REM GENRE Children
REM DATE 2003
REM DISCID 67082718
REM COMMENT "ExactAudioCopy v1.0b4"
PERFORMER "Аркадий Островский"
TITLE "Спят усталые игрушки"
FILE "01 - Начинаем, начинаем.wav" WAVE
TRACK 01 AUDIO
TITLE "Начинаем, начинаем"
PERFORMER "Аркадий Островский"
INDEX 01 00:00:00
FILE "02 - Угадай-ка.wav" WAVE
TRACK 02 AUDIO
TITLE "Угадай-ка"
PERFORMER "Аркадий Островский"
INDEX 01 00:00:00
FILE "03 - Про осу.wav" WAVE
TRACK 03 AUDIO
TITLE "Про осу"
PERFORMER "Аркадий Островский"
INDEX 01 00:00:00
FILE "04 - Спят усталые игрушки.wav" WAVE
TRACK 04 AUDIO
TITLE "Спят усталые игрушки"
PERFORMER "Аркадий Островский"
INDEX 01 00:00:00
FILE "05 - Тик-так.wav" WAVE
TRACK 05 AUDIO
TITLE "Тик-так"
PERFORMER "Аркадий Островский"
INDEX 01 00:00:00
FILE "06 - Кролик.wav" WAVE
TRACK 06 AUDIO
TITLE "Кролик"
PERFORMER "Аркадий Островский"
INDEX 01 00:00:00
FILE "07 - Галоши.wav" WAVE
TRACK 07 AUDIO
TITLE "Галоши"
PERFORMER "Аркадий Островский"
INDEX 01 00:00:00
FILE "08 - До, ре, ми, фа, соль.wav" WAVE
TRACK 08 AUDIO
TITLE "До, ре, ми, фа, соль"
PERFORMER "Аркадий Островский"
INDEX 01 00:00:00
FILE "09 - Школьная полька.wav" WAVE
TRACK 09 AUDIO
TITLE "Школьная полька"
PERFORMER "Аркадий Островский"
INDEX 01 00:00:00
FILE "10 - Пусть всегда будет солнце.wav" WAVE
TRACK 10 AUDIO
TITLE "Пусть всегда будет солнце"
PERFORMER "Аркадий Островский"
INDEX 01 00:00:00
FILE "11 - Нет таких на свете дел.wav" WAVE
TRACK 11 AUDIO
TITLE "Нет таких на свете дел"
PERFORMER "Аркадий Островский"
INDEX 01 00:00:00
FILE "12 - Кто справляется с делами.wav" WAVE
TRACK 12 AUDIO
TITLE "Кто справляется с делами"
PERFORMER "Аркадий Островский"
INDEX 01 00:00:00
FILE "13 - Песенка про неряху.wav" WAVE
TRACK 13 AUDIO
TITLE "Песенка про неряху"
PERFORMER "Аркадий Островский"
INDEX 01 00:00:00
FILE "14 - Песенка про лень.wav" WAVE
TRACK 14 AUDIO
TITLE "Песенка про лень"
PERFORMER "Аркадий Островский"
INDEX 01 00:00:00
FILE "15 - Качели.wav" WAVE
TRACK 15 AUDIO
TITLE "Качели"
PERFORMER "Аркадий Островский"
INDEX 01 00:00:00
FILE "16 - Хорошо, что снежок пошел.wav" WAVE
TRACK 16 AUDIO
TITLE "Хорошо, что снежок пошел"
PERFORMER "Аркадий Островский"
INDEX 01 00:00:00
FILE "17 - Азбука.wav" WAVE
TRACK 17 AUDIO
TITLE "Азбука"
PERFORMER "Аркадий Островский"
INDEX 01 00:00:00
FILE "18 - Поздравительный пирог.wav" WAVE
TRACK 18 AUDIO
TITLE "Поздравительный пирог"
PERFORMER "Аркадий Островский"
INDEX 01 00:00:00
FILE "19 - Песенка о морковке.wav" WAVE
TRACK 19 AUDIO
TITLE "Песенка о морковке"
PERFORMER "Аркадий Островский"
INDEX 01 00:00:00
FILE "20 - Сосулька.wav" WAVE
TRACK 20 AUDIO
TITLE "Сосулька"
PERFORMER "Аркадий Островский"
INDEX 01 00:00:00
FILE "21 - Тень.wav" WAVE
TRACK 21 AUDIO
TITLE "Тень"
PERFORMER "Аркадий Островский"
INDEX 01 00:00:00
FILE "22 - Дождик.wav" WAVE
TRACK 22 AUDIO
TITLE "Дождик"
PERFORMER "Аркадий Островский"
INDEX 01 00:00:00
FILE "23 - Песенка с гармошкой.wav" WAVE
TRACK 23 AUDIO
TITLE "Песенка с гармошкой"
PERFORMER "Аркадий Островский"
INDEX 01 00:00:00
FILE "24 - Песенка про носы.wav" WAVE
TRACK 24 AUDIO
TITLE "Песенка про носы"
PERFORMER "Аркадий Островский"
INDEX 01 00:00:00
[cybertorrent.ru].t56062.torrent 
Торрент: Зарегистрирован [ 2018-07-08 17:53 ] · 398D6D4B1E552A916217A5A22EA976B99C40E781

Скачать .torrent

Скачать

19 KB

Статус: проверено
Скачан: 0 раз
Размер: 213 MB
Профиль [ЛС]
Показать сообщения:    

Текущее время: 23-Сен 19:35

Часовой пояс: UTC ± 0



Вы не можете начинать темы
Вы не можете отвечать на сообщения
Вы не можете редактировать свои сообщения
Вы не можете удалять свои сообщения
Вы не можете голосовать в опросах
Вы не можете прикреплять файлы к сообщениям
Вы можете скачивать файлы
Torrents24.ru открытый BitTorrent Torrents24.pl открытый BitTorrent CyberTorrent.ru открытый BitTorrent BtList.ru рейтинг BitTorrent трекеров Яндекс.Метрика