Статистика раздачи
Размер:  234 MB   |    Зарегистрирован:  10 дней   |    Скачан:  0 раз

Полного источника не было: Никогда

 
   
 
 

Keeper ®

Пол:
Не указан
Стаж:
5 месяцев 4 дня
Сообщений:
495

Весёлая Планета
Популярные Мелодии Народов Мира, Специально Аранжированные Для Детей

Количество релизов (альбомов / синглов / EP/ сборников): 1
Жанр: Instrumental, Easy Listening
Год издания диска: 1994
Издатель (лейбл): P.P.E.
Номер по каталогу: THIMP-PPE CD 001 407
Аудиокодек: FLAC
Тип рипа: tracks+.cue
Битрейт аудио: lossless
Продолжительность: 30:39
Источник: собственный рип
Наличие сканов в содержимом раздачи: да
Треклист:
01. Happy Baby - Покидая дом родной [02:05]
02. Happy Baby - Приход весны [02:52]
03. Happy Baby - The Prancing Pixie [01:57]
04. Happy Baby - Волшебный май [02:35]
05. Happy Baby - Веселый охотник [03:09]
06. Happy Baby - Домик у ручья [02:45]
07. Happy Baby - Крошка Джонни [02:18]
08. Happy Baby - Кукушечка [02:00]
09. Happy Baby - Мельница [02:52]
10. Happy Baby - Утреняя роса [02:12]
11. Happy Baby - Странный мельник [02:51]
12. Happy Baby - Святой Августин [03:08]

Лог создания рипа

Exact Audio Copy V1.1 from 23. June 2015
EAC extraction logfile from 28. July 2015, 8:36
Happy Baby / Веселая планета
Used drive : ASUS SDRW-08D2S-U Adapter: 1 ID: 0
Read mode : Secure
Utilize accurate stream : Yes
Defeat audio cache : Yes
Make use of C2 pointers : No
Read offset correction : 6
Overread into Lead-In and Lead-Out : No
Fill up missing offset samples with silence : Yes
Delete leading and trailing silent blocks : No
Null samples used in CRC calculations : Yes
Used interface : Native Win32 interface for Win NT & 2000
Gap handling : Appended to previous track
Used output format : User Defined Encoder
Selected bitrate : 32 kBit/s
Quality : High
Add ID3 tag : No
Command line compressor : C:\Exact Audio Copy [installed]\Flac\flac.exe
Additional command line options : -8 -V -T "ARTIST=%artist%" -T "TITLE=%title%" -T "ALBUM=%albumtitle%" -T "DATE=%year%" -T "TRACKNUMBER=%tracknr%" -T "GENRE=%genre%" -T "COMMENT=ripped by Andy aka yetiisyou" %source%
TOC of the extracted CD
Track | Start | Length | Start sector | End sector
---------------------------------------------------------
1 | 0:00.00 | 2:04.45 | 0 | 9344
2 | 2:04.45 | 2:51.57 | 9345 | 22226
3 | 4:56.27 | 1:56.58 | 22227 | 30984
4 | 6:53.10 | 2:34.12 | 30985 | 42546
5 | 9:27.22 | 3:08.18 | 42547 | 56664
6 | 12:35.40 | 2:44.62 | 56665 | 69026
7 | 15:20.27 | 2:17.13 | 69027 | 79314
8 | 17:37.40 | 1:59.17 | 79315 | 88256
9 | 19:36.57 | 2:51.35 | 88257 | 101116
10 | 22:28.17 | 2:11.48 | 101117 | 110989
11 | 24:39.65 | 2:50.50 | 110990 | 123789
12 | 27:30.40 | 3:07.45 | 123790 | 137859
Track 1
Filename E:\!Ripped by Andy aka yetiisyou\VA - Весёлая Планета (Популярные Мелодии Народов Мира, Специально Аранжированные Для Детей)\01. Покидая дом родной.wav
Pre-gap length 0:00:02.00
Peak level 95.1 %
Extraction speed 2.2 X
Track quality 100.0 %
Test CRC 051251A8
Copy CRC 051251A8
Track not present in AccurateRip database
Copy OK
Track 2
Filename E:\!Ripped by Andy aka yetiisyou\VA - Весёлая Планета (Популярные Мелодии Народов Мира, Специально Аранжированные Для Детей)\02. Приход весны.wav
Peak level 90.9 %
Extraction speed 2.6 X
Track quality 100.0 %
Test CRC 9C8FD696
Copy CRC 9C8FD696
Track not present in AccurateRip database
Copy OK
Track 3
Filename E:\!Ripped by Andy aka yetiisyou\VA - Весёлая Планета (Популярные Мелодии Народов Мира, Специально Аранжированные Для Детей)\03. The Prancing Pixie.wav
Pre-gap length 0:00:01.07
Peak level 97.7 %
Extraction speed 2.5 X
Track quality 100.0 %
Test CRC C5DA0951
Copy CRC C5DA0951
Track not present in AccurateRip database
Copy OK
Track 4
Filename E:\!Ripped by Andy aka yetiisyou\VA - Весёлая Планета (Популярные Мелодии Народов Мира, Специально Аранжированные Для Детей)\04. Волшебный май.wav
Pre-gap length 0:00:01.05
Peak level 88.1 %
Extraction speed 2.8 X
Track quality 100.0 %
Test CRC 445A267B
Copy CRC 445A267B
Track not present in AccurateRip database
Copy OK
Track 5
Filename E:\!Ripped by Andy aka yetiisyou\VA - Весёлая Планета (Популярные Мелодии Народов Мира, Специально Аранжированные Для Детей)\05. Веселый охотник.wav
Peak level 98.4 %
Extraction speed 2.7 X
Track quality 99.9 %
Test CRC CB908CDF
Copy CRC CB908CDF
Track not present in AccurateRip database
Copy OK
Track 6
Filename E:\!Ripped by Andy aka yetiisyou\VA - Весёлая Планета (Популярные Мелодии Народов Мира, Специально Аранжированные Для Детей)\06. Домик у ручья.wav
Peak level 97.0 %
Extraction speed 3.2 X
Track quality 100.0 %
Test CRC 89D452E5
Copy CRC 89D452E5
Track not present in AccurateRip database
Copy OK
Track 7
Filename E:\!Ripped by Andy aka yetiisyou\VA - Весёлая Планета (Популярные Мелодии Народов Мира, Специально Аранжированные Для Детей)\07. Крошка Джонни.wav
Pre-gap length 0:00:01.02
Peak level 88.0 %
Extraction speed 3.2 X
Track quality 100.0 %
Test CRC FB3A89FD
Copy CRC FB3A89FD
Track not present in AccurateRip database
Copy OK
Track 8
Filename E:\!Ripped by Andy aka yetiisyou\VA - Весёлая Планета (Популярные Мелодии Народов Мира, Специально Аранжированные Для Детей)\08. Кукушечка.wav
Peak level 94.7 %
Extraction speed 3.2 X
Track quality 100.0 %
Test CRC 6925D390
Copy CRC 6925D390
Track not present in AccurateRip database
Copy OK
Track 9
Filename E:\!Ripped by Andy aka yetiisyou\VA - Весёлая Планета (Популярные Мелодии Народов Мира, Специально Аранжированные Для Детей)\09. Мельница.wav
Peak level 79.4 %
Extraction speed 3.6 X
Track quality 100.0 %
Test CRC A84D462D
Copy CRC A84D462D
Track not present in AccurateRip database
Copy OK
Track 10
Filename E:\!Ripped by Andy aka yetiisyou\VA - Весёлая Планета (Популярные Мелодии Народов Мира, Специально Аранжированные Для Детей)\10. Утреняя роса.wav
Peak level 94.6 %
Extraction speed 3.6 X
Track quality 100.0 %
Test CRC A1047C94
Copy CRC A1047C94
Track not present in AccurateRip database
Copy OK
Track 11
Filename E:\!Ripped by Andy aka yetiisyou\VA - Весёлая Планета (Популярные Мелодии Народов Мира, Специально Аранжированные Для Детей)\11. Странный мельник.wav
Peak level 72.9 %
Extraction speed 3.3 X
Track quality 99.9 %
Test CRC D82086C6
Copy CRC D82086C6
Track not present in AccurateRip database
Copy OK
Track 12
Filename E:\!Ripped by Andy aka yetiisyou\VA - Весёлая Планета (Популярные Мелодии Народов Мира, Специально Аранжированные Для Детей)\12. Святой Августин.wav
Pre-gap length 0:00:01.13
Peak level 92.3 %
Extraction speed 3.5 X
Track quality 99.9 %
Test CRC 286CD76E
Copy CRC 286CD76E
Track not present in AccurateRip database
Copy OK
None of the tracks are present in the AccurateRip database
No errors occurred
End of status report
---- CUETools DB Plugin V2.1.6
[CTDB TOCID: BKPHUsIKGisPLcZE4Wl_4LuiHD4-] disk not present in database
Submit result: BKPHUsIKGisPLcZE4Wl_4LuiHD4- has been uploaded
==== Log checksum CE42A410E35EB0F448D3DF5B0A4B354D8E4C19690372F42692612318477265C4 ====

Содержание индексной карты (.CUE)

REM GENRE Other
REM DISCID A1072E0C
REM COMMENT "ExactAudioCopy v1.1"
PERFORMER "Happy Baby"
TITLE "Веселая планета"
FILE "01. Покидая дом родной.wav" WAVE
TRACK 01 AUDIO
TITLE "Покидая дом родной"
PERFORMER "Happy Baby"
INDEX 01 00:00:00
FILE "02. Приход весны.wav" WAVE
TRACK 02 AUDIO
TITLE "Приход весны"
PERFORMER "Happy Baby"
INDEX 01 00:00:00
TRACK 03 AUDIO
TITLE "The Prancing Pixie"
PERFORMER "Happy Baby"
INDEX 00 02:50:50
FILE "03. The Prancing Pixie.wav" WAVE
INDEX 01 00:00:00
TRACK 04 AUDIO
TITLE "Волшебный май"
PERFORMER "Happy Baby"
INDEX 00 01:55:53
FILE "04. Волшебный май.wav" WAVE
INDEX 01 00:00:00
FILE "05. Веселый охотник.wav" WAVE
TRACK 05 AUDIO
TITLE "Веселый охотник"
PERFORMER "Happy Baby"
INDEX 01 00:00:00
FILE "06. Домик у ручья.wav" WAVE
TRACK 06 AUDIO
TITLE "Домик у ручья"
PERFORMER "Happy Baby"
INDEX 01 00:00:00
TRACK 07 AUDIO
TITLE "Крошка Джонни"
PERFORMER "Happy Baby"
INDEX 00 02:43:60
FILE "07. Крошка Джонни.wav" WAVE
INDEX 01 00:00:00
FILE "08. Кукушечка.wav" WAVE
TRACK 08 AUDIO
TITLE "Кукушечка"
PERFORMER "Happy Baby"
INDEX 01 00:00:00
FILE "09. Мельница.wav" WAVE
TRACK 09 AUDIO
TITLE "Мельница"
PERFORMER "Happy Baby"
INDEX 01 00:00:00
FILE "10. Утреняя роса.wav" WAVE
TRACK 10 AUDIO
TITLE "Утреняя роса"
PERFORMER "Happy Baby"
INDEX 01 00:00:00
FILE "11. Странный мельник.wav" WAVE
TRACK 11 AUDIO
TITLE "Странный мельник"
PERFORMER "Happy Baby"
INDEX 01 00:00:00
TRACK 12 AUDIO
TITLE "Святой Августин"
PERFORMER "Happy Baby"
INDEX 00 02:49:37
FILE "12. Святой Августин.wav" WAVE
INDEX 01 00:00:00
[cybertorrent.ru].t56275.torrent 
Торрент: Зарегистрирован [ 2018-07-08 21:43 ] · 66FB0444C58960BE68271354975F63D0A481E3A7

Скачать .torrent

Скачать

20 KB

Статус: проверено
Скачан: 0 раз
Размер: 234 MB
Профиль [ЛС]
Показать сообщения:    

Текущее время: 19-Июл 14:59

Часовой пояс: UTC ± 0



Вы не можете начинать темы
Вы не можете отвечать на сообщения
Вы не можете редактировать свои сообщения
Вы не можете удалять свои сообщения
Вы не можете голосовать в опросах
Вы не можете прикреплять файлы к сообщениям
Вы можете скачивать файлы