Статистика раздачи
Размер:  742 MB   |    Зарегистрирован:  8 дней   |    Скачан:  0 раз

Полного источника не было: Никогда

 
   
 
 

kex ®

Пол:
Не указан
Стаж:
5 месяцев 5 дней
Сообщений:
637

Человек в железной маске / The Man in the Iron Mask
Страна: Австралия
Жанр: приключения, семейный
Продолжительность: 00:52:45
Год выпуска: 1985
Перевод: Профессиональный (многоголосый закадровый)
Русские субтитры: нет

Режиссёр: Уорвик Гилберт / Warwick Gilbert
Роли озвучивали: Колин Фрилз, Гвен Пламб, Джон Майллон, Эрл Кросс, Уоллас Итон, Белинда Гиблин, Брайан Харрисон, Филлип Хинтон, Ли Джеймс. Ричард Майкл
Описание: Знаменитые мушкетеры Александра Дюма - снова требуется их помощь. Несмотря на то, что карьера мушкетеров уже приближается к концу, их созывают, чтобы защитить французского короля Луи XIV и вызволить его из тюрьмы, посадив вместо него его брата - близнеца.
Качество: DVDRip
Формат: AVI
Видео: 640x480 (1.33:1), 25 fps, XviD build 73 ~1763 kbps avg, 0.23 bit/pixel
Аудио: 48 kHz, AC3 Dolby Digital, 2/0 (L,R) ch, ~192 kbps
Субтитры: отсутствуют

Сравнение

http://cybertorrent.ru/viewtopic.php?t=3470921
http://screenshotcomparison.com/comparison/150829
оцифровка с VHS записи с ТВ
другой формат, реклама, помехи

скрытый текст

но наполнение чуть больше и всё-таки исходник звука

Подробные технические данные

Общее
Полное имя : H:\The.Man.in.the.Iron.Mask.1985.dvdrip_[745]_[teko].avi
Формат : AVI
Формат/Информация : Audio Video Interleave
Размер файла : 742 Мбайт
Продолжительность : 52 м.
Общий поток : 1965 Кбит/сек
Программа кодирования : VirtualDubMod 1.5.10.3 | www.virtualdub-fr.org || (build 2550/release)
Библиотека кодирования : VirtualDubMod build 2550/release
Видео
Идентификатор : 0
Формат : MPEG-4 Visual
Профиль формата : Advanced Simple@L5
Параметр BVOP формата : 2
Параметр QPel формата : Нет
Параметр GMC формата : Без точки перехода
Параметр матрицы формата : Выборочная
Идентификатор кодека : XVID
Идентификатор кодека/Подсказка : XviD
Продолжительность : 52 м.
Битрейт : 1763 Кбит/сек
Ширина : 640 пикселей
Высота : 480 пикселей
Соотношение сторон : 4:3
Частота кадров : 25,000 кадров/сек
Цветовое пространство : YUV
Субдискретизация насыщенности : 4:2:0
Битовая глубина : 8 бит
Тип развёртки : Прогрессивная
Метод сжатия : С потерями
Бит/(Пиксели*Кадры) : 0.230
Размер потока : 665 Мбайт (90%)
Библиотека кодирования : XviD 73
Аудио
Идентификатор : 1
Формат : AC-3
Формат/Информация : Audio Coding 3
Расширение режима : CM (complete main)
Параметр Endianness формата : Big
Идентификатор кодека : 2000
Продолжительность : 52 м.
Вид битрейта : Постоянный
Битрейт : 192 Кбит/сек
Каналы : 2 канала
Расположение каналов : Front: L R
Частота : 48,0 КГц
Битовая глубина : 16 бит
Метод сжатия : С потерями
Размер потока : 72,5 Мбайт (10%)
Выравнивание : Разделение по промежуткам
Продолжительность промежутка : 40 мс. (1,00 видеокадр)
Время предзагрузки промежутка : 500 мс.
Релиз группы:
--
[cybertorrent.ru].t56452.torrent 
Торрент: Зарегистрирован [ 2018-07-11 16:09 ] · 30F868EA5715869D29C3004076D3DCE984C0E37F

Скачать .torrent

Скачать

15 KB

Статус: проверено
Скачан: 0 раз
Размер: 742 MB
Профиль [ЛС]
Показать сообщения:    

Текущее время: 20-Июл 14:34

Часовой пояс: UTC ± 0



Вы не можете начинать темы
Вы не можете отвечать на сообщения
Вы не можете редактировать свои сообщения
Вы не можете удалять свои сообщения
Вы не можете голосовать в опросах
Вы не можете прикреплять файлы к сообщениям
Вы можете скачивать файлы