Статистика раздачи
Размер:  232 MB   |    Зарегистрирован:  7 дней   |    Скачан:  0 раз

Полного источника не было: Никогда

 
   
 
 

Keeper ®

Пол:
Не указан
Стаж:
5 месяцев 4 дня
Сообщений:
495

Классическая музыка детям. Музыка о природе (Various Artists)
Жанр: Детская музыка, Classical
Год издания диска: 1990
Издатель (лейбл): ТВИК
Номер по каталогу:
Аудиокодек: FLAC
Тип рипа: tracks+.cue
Битрейт аудио: lossless
Продолжительность: 00:51:04
Источник: собственный рип
Наличие сканов в содержимом раздачи: да
Исполнители:
Оркестр Оперного театра Сан-Франциско,
Лондонский симфонический оркестр,
Симфонический оркестр Чешского радио,
Berliner Philharmoniker,
Нью-йоркский филармонический оркестр.

Треклист:

01. Э.Григ - Петер Гюнт - Утро (04:16)
02. А.Вивальди - Времена года - Зима - Lagro (02:19)
03. П.Чайковский - Времена года - Ноябрь - На тройке (02:56)
04. А.Вивальди - Времена года - Весна - Allegro (04:03)
05. П.Чайковский - Времена года - Апрель - Подснежник (02:39)
06. А.Вивальди - Времена года - Лето - Presto (02:45)
07. П.Чайковский - Щелкунчик - Вальс цветов (06:38)
08. П.Чайковский - Времена года - Июль - Песня косаря (01:42)
09. Н.Римский-Корсаков - Сказка о царе Салтане - Полёт шмеля (01:25)
10. И.Штраус-сын - На охоте - Полька (02:24)
11. В.А.Моцарт - Маленькая ночная серенада (03:55)
12. А.Вивальди - Времена года - Осень - Allegro (03:36)
13. П.Чайковский - Времена года - Октябрь - Осенняя песня (05:14)
14. П.Чайковский - Щелкунчик - Сцена в сосновом лесу (04:07)
15. К.Сен-Санс - Карнавал животных - Лебедь (03:05)
-

LOG EAC:

Exact Audio Copy V1.0 beta 3 from 29. August 2011
EAC extraction logfile from 29. November 2015, 13:18
Various Artists / Классическая музыка детям - Музыка о природе
Used drive : PIONEER DVD-RW DVR-221L Adapter: 2 ID: 0
Read mode : Secure
Utilize accurate stream : Yes
Defeat audio cache : Yes
Make use of C2 pointers : No
Read offset correction : 6
Overread into Lead-In and Lead-Out : No
Fill up missing offset samples with silence : Yes
Delete leading and trailing silent blocks : No
Null samples used in CRC calculations : Yes
Used interface : Installed external ASPI interface
Gap handling : Appended to previous track
Used output format : User Defined Encoder
Selected bitrate : 768 kBit/s
Quality : High
Add ID3 tag : No
Command line compressor : C:\Program Files\Exact Audio Copy\Flac\flac.exe
Additional command line options : -6 -V -T "ARTIST=%artist%" -T "TITLE=%title%" -T "ALBUM=%albumtitle%" -T "DATE=%year%" -T "TRACKNUMBER=%tracknr%" -T "GENRE=%genre%" -T "COMMENT=%comment%" -T "ALBUMARTIST=%albuminterpret%" -T "COMPOSER=%composer%" -T "DISCNUMBER=%cdnumber%" -T "TOTALDISCS=%totalcds%" -T "TOTALTRACKS=%numtracks%" %source% -o %dest%
TOC of the extracted CD
Track | Start | Length | Start sector | End sector
---------------------------------------------------------
1 | 0:00.00 | 4:15.55 | 0 | 19179
2 | 4:15.55 | 2:19.00 | 19180 | 29604
3 | 6:34.55 | 2:56.34 | 29605 | 42838
4 | 9:31.14 | 4:02.59 | 42839 | 61047
5 | 13:33.73 | 2:38.73 | 61048 | 72970
6 | 16:12.71 | 2:44.62 | 72971 | 85332
7 | 18:57.58 | 6:37.62 | 85333 | 115169
8 | 25:35.45 | 1:42.33 | 115170 | 122852
9 | 27:18.03 | 1:24.60 | 122853 | 129212
10 | 28:42.63 | 2:24.21 | 129213 | 140033
11 | 31:07.09 | 3:55.23 | 140034 | 157681
12 | 35:02.32 | 3:36.07 | 157682 | 173888
13 | 38:38.39 | 5:14.17 | 173889 | 197455
14 | 43:52.56 | 4:06.64 | 197456 | 215969
15 | 47:59.45 | 3:05.06 | 215970 | 229850
Track 1
Filename D:\EAC\01 - Э.Григ - Петер Гюнт - Утро.wav
Pre-gap length 0:00:02.00
Peak level 100.0 %
Extraction speed 4.4 X
Track quality 100.0 %
Test CRC CAD23627
Copy CRC CAD23627
Track not present in AccurateRip database
Copy OK
Track 2
Filename D:\EAC\02 - А.Вивальди - Времена года - Зима - Lagro.wav
Pre-gap length 0:00:02.00
Peak level 100.0 %
Extraction speed 4.3 X
Track quality 100.0 %
Test CRC 80BCF60B
Copy CRC 80BCF60B
Track not present in AccurateRip database
Copy OK
Track 3
Filename D:\EAC\03 - П.Чайковский - Времена года - Ноябрь - На тройке.wav
Pre-gap length 0:00:02.00
Peak level 100.0 %
Extraction speed 4.8 X
Track quality 100.0 %
Test CRC BDB2D033
Copy CRC BDB2D033
Track not present in AccurateRip database
Copy OK
Track 4
Filename D:\EAC\04 - А.Вивальди - Времена года - Весна - Allegro.wav
Pre-gap length 0:00:02.00
Peak level 100.0 %
Extraction speed 5.5 X
Track quality 100.0 %
Test CRC D8C93369
Copy CRC D8C93369
Track not present in AccurateRip database
Copy OK
Track 5
Filename D:\EAC\05 - П.Чайковский - Времена года - Апрель - Подснежник.wav
Pre-gap length 0:00:02.00
Peak level 100.0 %
Extraction speed 5.3 X
Track quality 100.0 %
Test CRC E61683CE
Copy CRC E61683CE
Track not present in AccurateRip database
Copy OK
Track 6
Filename D:\EAC\06 - А.Вивальди - Времена года - Лето - Presto.wav
Pre-gap length 0:00:02.00
Peak level 99.9 %
Extraction speed 5.7 X
Track quality 100.0 %
Test CRC 5008186A
Copy CRC 5008186A
Track not present in AccurateRip database
Copy OK
Track 7
Filename D:\EAC\07 - П.Чайковский - Щелкунчик - Вальс цветов.wav
Pre-gap length 0:00:02.00
Peak level 100.0 %
Extraction speed 6.9 X
Track quality 100.0 %
Test CRC E0E07CB6
Copy CRC E0E07CB6
Track not present in AccurateRip database
Copy OK
Track 8
Filename D:\EAC\08 - П.Чайковский - Времена года - Июль - Песня косаря.wav
Pre-gap length 0:00:02.00
Peak level 100.0 %
Extraction speed 5.6 X
Track quality 100.0 %
Test CRC 245C8AB8
Copy CRC 245C8AB8
Track not present in AccurateRip database
Copy OK
Track 9
Filename D:\EAC\09 - Н.Римский-Корсаков - Сказка о царе Салтане - Полёт шмеля.wav
Pre-gap length 0:00:02.00
Peak level 100.0 %
Extraction speed 5.2 X
Track quality 100.0 %
Test CRC 7FFC2B7C
Copy CRC 7FFC2B7C
Track not present in AccurateRip database
Copy OK
Track 10
Filename D:\EAC\10 - И.Штраус-сын - На охоте - Полька.wav
Pre-gap length 0:00:02.00
Peak level 100.0 %
Extraction speed 4.0 X
Track quality 100.0 %
Test CRC B90C550A
Copy CRC B90C550A
Track not present in AccurateRip database
Copy OK
Track 11
Filename D:\EAC\11 - В.А.Моцарт - Маленькая ночная серенада.wav
Pre-gap length 0:00:02.00
Peak level 100.0 %
Extraction speed 6.5 X
Track quality 100.0 %
Test CRC 46566BB1
Copy CRC 46566BB1
Track not present in AccurateRip database
Copy OK
Track 12
Filename D:\EAC\12 - А.Вивальди - Времена года - Осень - Allegro.wav
Pre-gap length 0:00:02.00
Peak level 100.0 %
Extraction speed 5.2 X
Track quality 99.9 %
Test CRC D66E429E
Copy CRC D66E429E
Track not present in AccurateRip database
Copy OK
Track 13
Filename D:\EAC\13 - П.Чайковский - Времена года - Октябрь - Осенняя песня.wav
Pre-gap length 0:00:02.00
Peak level 100.0 %
Extraction speed 7.8 X
Track quality 100.0 %
Test CRC 3C76B653
Copy CRC 3C76B653
Track not present in AccurateRip database
Copy OK
Track 14
Filename D:\EAC\14 - П.Чайковский - Щелкунчик - Сцена в сосновом лесу.wav
Pre-gap length 0:00:02.00
Peak level 100.0 %
Extraction speed 6.9 X
Track quality 100.0 %
Test CRC 75D37652
Copy CRC 75D37652
Track not present in AccurateRip database
Copy OK
Track 15
Filename D:\EAC\15 - К.Сен-Санс - Карнавал животных - Лебедь.wav
Pre-gap length 0:00:02.00
Peak level 100.0 %
Extraction speed 7.3 X
Track quality 100.0 %
Test CRC FA4704F6
Copy CRC FA4704F6
Track not present in AccurateRip database
Copy OK
None of the tracks are present in the AccurateRip database
No errors occurred
End of status report
==== Log checksum 3727063DC8BF35D13A9C18ED20799473BFDBC03AD58B26AA4B4E768F93CCFE80 ====

LOG (.CUE):

REM GENRE Classical
REM DATE 1990
REM DISCID D20BF80F
REM COMMENT "ExactAudioCopy v1.0b3"
PERFORMER "Various Artists"
TITLE "Классическая музыка детям - Музыка о природе"
FILE "01 - Э.Григ - Петер Гюнт - Утро.wav" WAVE
TRACK 01 AUDIO
TITLE "Э.Григ - Петер Гюнт - Утро"
PERFORMER "Various Artists"
FLAGS DCP
INDEX 01 00:00:00
TRACK 02 AUDIO
TITLE "А.Вивальди - Времена года - Зима - Lagro"
PERFORMER "Various Artists"
FLAGS DCP
INDEX 00 04:13:55
FILE "02 - А.Вивальди - Времена года - Зима - Lagro.wav" WAVE
INDEX 01 00:00:00
TRACK 03 AUDIO
TITLE "П.Чайковский - Времена года - Ноябрь - На тройке"
PERFORMER "Various Artists"
FLAGS DCP
INDEX 00 02:17:00
FILE "03 - П.Чайковский - Времена года - Ноябрь - На тройке.wav" WAVE
INDEX 01 00:00:00
TRACK 04 AUDIO
TITLE "А.Вивальди - Времена года - Весна - Allegro"
PERFORMER "Various Artists"
FLAGS DCP
INDEX 00 02:54:34
FILE "04 - А.Вивальди - Времена года - Весна - Allegro.wav" WAVE
INDEX 01 00:00:00
TRACK 05 AUDIO
TITLE "П.Чайковский - Времена года - Апрель - Подснежник"
PERFORMER "Various Artists"
FLAGS DCP
INDEX 00 04:00:59
FILE "05 - П.Чайковский - Времена года - Апрель - Подснежник.wav" WAVE
INDEX 01 00:00:00
TRACK 06 AUDIO
TITLE "А.Вивальди - Времена года - Лето - Presto"
PERFORMER "Various Artists"
FLAGS DCP
INDEX 00 02:36:73
FILE "06 - А.Вивальди - Времена года - Лето - Presto.wav" WAVE
INDEX 01 00:00:00
TRACK 07 AUDIO
TITLE "П.Чайковский - Щелкунчик - Вальс цветов"
PERFORMER "Various Artists"
FLAGS DCP
INDEX 00 02:42:62
FILE "07 - П.Чайковский - Щелкунчик - Вальс цветов.wav" WAVE
INDEX 01 00:00:00
TRACK 08 AUDIO
TITLE "П.Чайковский - Времена года - Июль - Песня косаря"
PERFORMER "Various Artists"
FLAGS DCP
INDEX 00 06:35:62
FILE "08 - П.Чайковский - Времена года - Июль - Песня косаря.wav" WAVE
INDEX 01 00:00:00
TRACK 09 AUDIO
TITLE "Н.Римский-Корсаков - Сказка о царе Салтане - Полёт шмеля"
PERFORMER "Various Artists"
FLAGS DCP
INDEX 00 01:40:33
FILE "09 - Н.Римский-Корсаков - Сказка о царе Салтане - Полёт шмеля.wav" WAVE
INDEX 01 00:00:00
TRACK 10 AUDIO
TITLE "И.Штраус-сын - На охоте - Полька"
PERFORMER "Various Artists"
FLAGS DCP
INDEX 00 01:22:60
FILE "10 - И.Штраус-сын - На охоте - Полька.wav" WAVE
INDEX 01 00:00:00
TRACK 11 AUDIO
TITLE "В.А.Моцарт - Маленькая ночная серенада"
PERFORMER "Various Artists"
FLAGS DCP
INDEX 00 02:22:21
FILE "11 - В.А.Моцарт - Маленькая ночная серенада.wav" WAVE
INDEX 01 00:00:00
TRACK 12 AUDIO
TITLE "А.Вивальди - Времена года - Осень - Allegro"
PERFORMER "Various Artists"
FLAGS DCP
INDEX 00 03:53:23
FILE "12 - А.Вивальди - Времена года - Осень - Allegro.wav" WAVE
INDEX 01 00:00:00
TRACK 13 AUDIO
TITLE "П.Чайковский - Времена года - Октябрь - Осенняя песня"
PERFORMER "Various Artists"
FLAGS DCP
INDEX 00 03:34:07
FILE "13 - П.Чайковский - Времена года - Октябрь - Осенняя песня.wav" WAVE
INDEX 01 00:00:00
TRACK 14 AUDIO
TITLE "П.Чайковский - Щелкунчик - Сцена в сосновом лесу"
PERFORMER "Various Artists"
FLAGS DCP
INDEX 00 05:12:17
FILE "14 - П.Чайковский - Щелкунчик - Сцена в сосновом лесу.wav" WAVE
INDEX 01 00:00:00
TRACK 15 AUDIO
TITLE "К.Сен-Санс - Карнавал животных - Лебедь"
PERFORMER "Various Artists"
FLAGS DCP
INDEX 00 04:04:64
FILE "15 - К.Сен-Санс - Карнавал животных - Лебедь.wav" WAVE
INDEX 01 00:00:00
-Доп. информация:
Классическая музыка детям необходима наравне с простыми детскими песенками и привычными колыбельными. Педиатры и детские психологи едины во мнении, что именно классическая музыка помогает формировать правильную личность и благотворно влиять на психику ребенка. Музыка в этом нежном возрасте должна быть светлой, умиротворенной, с оптимистической интонацией.
В этом сборнике самые известные произведения классической музыки в специальной обработке для детей: Вольфганга Амадея Моцарта, Петра Ильича Чайковского, Камиля Сен-Санса, Антонио Вивальди, Эдварда Грига, Иоганна Штрауса.-mp3
[cybertorrent.ru].t56489.torrent 
Торрент: Зарегистрирован [ 2018-07-11 16:09 ] · AF6596483A36B09EB4F1093AC6C34337AD4C2651

Скачать .torrent

Скачать

21 KB

Статус: проверено
Скачан: 0 раз
Размер: 232 MB
Профиль [ЛС]
Показать сообщения:    

Текущее время: 19-Июл 15:07

Часовой пояс: UTC ± 0



Вы не можете начинать темы
Вы не можете отвечать на сообщения
Вы не можете редактировать свои сообщения
Вы не можете удалять свои сообщения
Вы не можете голосовать в опросах
Вы не можете прикреплять файлы к сообщениям
Вы можете скачивать файлы