BitTorrent клиенты



Белль и Себастьян: Друзья навек / Belle et Sébastien 3, le dernier chapitre (Кловис Корнийяк / Clovis Cornillac) [2017, Франция, приключения, семейный, BDRip 720p] MVO (СВ Студия) + Original Fra + Sub Rus, Fra

Ответить на тему
Статистика раздачи
Размер:  4,22 GB   |    Зарегистрирован:  4 месяца 20 дней   |    Скачан:  0 раз

Полного источника не было: Никогда

 
   
 
 
Автор Сообщение

RussianGirl ®

Пол: Не указан

Стаж: 1 год

Сообщений: 1309

Создавать темы 29-Сен-2018 15:34

[Цитировать]

Белль и Себастьян: Друзья навек / Belle et Sébastien 3, le dernier chapitre
Страна: Франция
Студия: Radar Films, Epithète Films, Gaumont, M6 Films, Auvergne Rhône-Alpes Cinéma, Canal+, OCS, W9, Entourage Pictures
Жанр: Приключения, семейный
Год выпуска: 2017
Продолжительность: 01:30:48
Перевод: Профессиональный (многоголосый закадровый) - СВ Студия
Субтитры: Русские (СВ Студия), французские
Оригинальная аудиодорожка: Французский
Режиссер: Кловис Корнийяк / Clovis Cornillac
В ролях: Феликс Боссюэ, Чеки Карио, Кловис Корнийяк, Тьерри Нёвик, Марго Шателье, Андре Пенверн, Анн Бенуа, Лилу Фогли, Наэль Томас, Октав Боссюэ, Оливье Буана, Марти Берреби, Матео Бурдон, Бернадетт Криссохоидис, Пьер Коньон, Дэни Деон, Эдан Фуссе, Брайс Голдшмидт, Стефани Марго, Лора Матон, Френсис Пеллерин
Описание: Себастьян стал почти совсем взрослым и даже почти не прогуливает школу. У Белль появилось очаровательное потомство. У Пьера и Анжелины тоже все неплохо, и даже старый Сезар ворчит меньше обычного. Всеобщую идиллию прерывает появление загадочного и злобного незнакомца. Он называет себя настоящим хозяином Белль и крадет ее вместе с щенятами. До сих пор Белль помогала Себастьяну выпутываться из любых авантюр, но теперь ему в одиночку предстоит побороться за своего лучшего друга. Получится у Себастьяна восстановить справедливость и вернуть Белль домой?
Дополнительная информация:
Автор релиза -
За заказ перевода "СВ Студии" спасибо меценатам:
(rutracker) ylnian, fotografff, irrlicht, Руслан250381, MumuV, rivaspb, tudakuda, ivan ser, rulle1, caimera, malyaka, viryzhkov, runtotheriver, cineman, w15
(teamhd) xarici, Maike, Stanner, marveltm, n1ko1as, Vaxtang, svarnoy_62, ukollov, TeamHD, fess_master, mishka, foxGmalder, ROFOL
(kinozal) NetOptic, SergeiHa, lobashonok71, raynman, stydent64, Sofia1201
Исходник для рипа - Blu-Ray (FRA) - Belle.et.Sebastien.3.Le.Dernier.Chapitre.2017.FRENCH.COMPLETE.BLURAY-4FR
Сохранены главы с BD
Рекламы нет!


Сэмпл: http://multi-up.com/1210224
Качество видео: BDRip 720p
Формат видео: MKV
Видео: MPEG-4, 1280x536 (2,40:1), 5365 kbps, 24.000 fps, 0.326 bit/pixel
Аудио 1: Русский AC3, 48000 Гц, 6ch, 640 kbps
Аудио 2: Французский AC3, 48000 Гц, 6ch, 640 kbps
Формат субтитров: softsub (SRT)

MediaInfo

frame I:1126 Avg QP:11.85 size:130539
frame P:26162 Avg QP:13.40 size: 56194
frame B:103454 Avg QP:15.66 size: 19682
consecutive B-frames: 1.8% 2.0% 7.2% 12.6% 13.6% 48.3% 5.0% 3.9% 2.4% 0.8% 2.6%
mb I I16..4: 5.2% 72.6% 22.3%
mb P I16..4: 1.3% 13.3% 1.8% P16..4: 23.9% 32.0% 17.2% 4.4% 0.6% skip: 5.7%
mb B I16..4: 0.4% 1.9% 0.2% B16..8: 34.3% 29.3% 8.0% direct: 5.7% skip:20.2% L0:43.7% L1:37.1% BI:19.2%
ref P L0: 47.9% 8.4% 18.5% 8.2% 6.8% 5.1% 4.9% 0.2% 0.0%
ref B L0: 74.2% 12.6% 6.6% 3.9% 1.9% 0.8%
ref B L1: 93.8% 6.2%
encoded 130742 frames, 6.00 fps, 5365.09 kb/s
Общее
Уникальный идентификатор : 327814314443607604258374136577993545293 (0xF69EBD8D61DA2A6A4E789C88F011164D)
Полное имя : D:\Belle.et.Sebastien.3.le.dernier.chapitre.2017.BDRip.720p-ylnian_new.mkv
Формат : Matroska
Версия формата : Version 4 / Version 2
Размер файла : 4,22 Гбайт
Продолжительность : 1 ч. 30 м.
Общий поток : 6647 Кбит/сек
Название фильма : Belle et Sébastien 3, le dernier chapitre 2017 BDRip 720p - ylnian
Дата кодирования : UTC 2018-09-28 15:10:17
Программа кодирования : mkvmerge v27.0.0 ('Metropolis') 64-bit
Библиотека кодирования : libebml v1.3.6 + libmatroska v1.4.9
Видео
Идентификатор : 1
Формат : AVC
Формат/Информация : Advanced Video Codec
Профиль формата : High@L4.1
Настройки формата : CABAC / 7 Ref Frames
Параметр CABAC формата : Да
Параметр RefFrames формата : 7 кадров
Идентификатор кодека : V_MPEG4/ISO/AVC
Продолжительность : 1 ч. 30 м.
Битрейт : 5365 Кбит/сек
Ширина : 1280 пикселей
Высота : 536 пикселей
Соотношение сторон : 2,40:1
Режим частоты кадров : Постоянный
Частота кадров : 24,000 кадра/сек
Цветовое пространство : YUV
Субдискретизация насыщенности : 4:2:0
Битовая глубина : 8 бит
Тип развёртки : Прогрессивная
Бит/(Пиксели*Кадры) : 0.326
Размер потока : 3,40 Гбайт (81%)
Заголовок : Belle et Sébastien 3, le dernier chapitre 2017 BDRip 720p - ylnian
Библиотека кодирования : x264 core 155 r2901 7d0ff22
Настройки программы : cabac=1 / ref=7 / deblock=1:-3:-3 / analyse=0x3:0x133 / me=umh / subme=11 / psy=1 / psy_rd=1.05:0.00 / mixed_ref=1 / me_range=64 / chroma_me=1 / trellis=2 / 8x8dct=1 / cqm=0 / deadzone=21,11 / fast_pskip=0 / chroma_qp_offset=-4 / threads=12 / lookahead_threads=3 / sliced_threads=0 / nr=0 / decimate=1 / interlaced=0 / bluray_compat=0 / constrained_intra=0 / bframes=10 / b_pyramid=2 / b_adapt=2 / b_bias=0 / direct=2 / weightb=1 / open_gop=0 / weightp=2 / keyint=250 / keyint_min=23 / scenecut=40 / intra_refresh=0 / rc_lookahead=160 / rc=crf / mbtree=0 / crf=14.7 / qcomp=0.60 / qpmin=0 / qpmax=69 / qpstep=4 / vbv_maxrate=62500 / vbv_bufsize=78125 / crf_max=0.0 / nal_hrd=none / filler=0 / ip_ratio=1.40 / pb_ratio=1.30 / aq=2:0.80
Язык : French
Default : Да
Forced : Да
Аудио #1
Идентификатор : 2
Формат : AC-3
Формат/Информация : Audio Coding 3
Идентификатор кодека : A_AC3
Продолжительность : 1 ч. 30 м.
Вид битрейта : Постоянный
Битрейт : 640 Кбит/сек
Каналы : 6 каналов
Расположение каналов : Front: L C R, Side: L R, LFE
Частота : 48,0 КГц
Частота кадров : 31,250 кадров/сек (1536 SPF)
Битовая глубина : 16 бит
Метод сжатия : С потерями
Размер потока : 416 Мбайт (10%)
Заголовок : MVO - СВ Студия
Язык : Russian
ServiceKind/String : Complete Main
Default : Да
Forced : Да
Аудио #2
Идентификатор : 3
Формат : AC-3
Формат/Информация : Audio Coding 3
Идентификатор кодека : A_AC3
Продолжительность : 1 ч. 30 м.
Вид битрейта : Постоянный
Битрейт : 640 Кбит/сек
Каналы : 6 каналов
Расположение каналов : Front: L C R, Side: L R, LFE
Частота : 48,0 КГц
Частота кадров : 31,250 кадров/сек (1536 SPF)
Битовая глубина : 16 бит
Метод сжатия : С потерями
Размер потока : 416 Мбайт (10%)
Язык : French
ServiceKind/String : Complete Main
Default : Нет
Forced : Нет
Текст #1
Идентификатор : 4
Формат : UTF-8
Идентификатор кодека : S_TEXT/UTF8
Идентификатор кодека/Информация : UTF-8 Plain Text
Продолжительность : 1 ч. 25 м.
Битрейт : 58 бит/сек
ElementCount : 802
Размер потока : 36,8 Кбайт (0%)
Язык : Russian
Default : Нет
Forced : Нет
Текст #2
Идентификатор : 5
Формат : UTF-8
Идентификатор кодека : S_TEXT/UTF8
Идентификатор кодека/Информация : UTF-8 Plain Text
Продолжительность : 1 ч. 29 м.
Битрейт : 40 бит/сек
ElementCount : 1076
Размер потока : 26,3 Кбайт (0%)
Язык : French
Default : Нет
Forced : Нет
Меню
00:00:00.000 : fr:00:00:00.000
00:08:24.042 : fr:00:08:24.042
00:15:48.375 : fr:00:15:48.375
00:22:10.458 : fr:00:22:10.458
00:29:17.083 : fr:00:29:17.083
00:36:38.375 : fr:00:36:38.375
00:43:30.417 : fr:00:43:30.417
00:50:54.792 : fr:00:50:54.792
00:58:05.667 : fr:00:58:05.667
01:04:48.792 : fr:01:04:48.792
01:11:41.375 : fr:01:11:41.375
01:18:24.708 : fr:01:18:24.708
[cybertorrent.ru].t56503.torrent 
Торрент: Зарегистрирован [ 2018-09-29 15:35 ] · 935E05DED45BA92A0F36926B4509547C93920888

Скачать .torrent

Скачать

22 KB

Статус: проверено
Скачан: 0 раз
Размер: 4,22 GB
terms.php
[Профиль] [ЛС]
Показать сообщения:    
Ответить на тему

Текущее время: 20-Фев 00:17

Часовой пояс: UTC + 3



Вы не можете начинать темы
Вы не можете отвечать на сообщения
Вы не можете редактировать свои сообщения
Вы не можете удалять свои сообщения
Вы не можете голосовать в опросах
Вы не можете прикреплять файлы к сообщениям
Вы можете скачивать файлы