BitTorrent клиенты



Белль и Себастьян: Друзья навек / Belle et Sébastien 3, le dernier chapitre (Кловис Корнийяк / Clovis Cornillac) [2017, Франция, приключения, семейный, BDRip 1080p] MVO (СВ Студия) + Original Fra + Sub Rus, Fra

Ответить на тему
Статистика раздачи
Размер:  9,79 GB   |    Зарегистрирован:  4 месяца 20 дней   |    Скачан:  0 раз

Полного источника не было: Никогда

 
   
 
 
Автор Сообщение

RussianGirl ®

Пол: Не указан

Стаж: 1 год

Сообщений: 1309

Создавать темы 29-Сен-2018 15:34

[Цитировать]

Белль и Себастьян: Друзья навек / Belle et Sébastien 3, le dernier chapitre
Страна: Франция
Студия: Radar Films, Epithète Films, Gaumont, M6 Films, Auvergne Rhône-Alpes Cinéma, Canal+, OCS, W9, Entourage Pictures
Жанр: Приключения, семейный
Год выпуска: 2017
Продолжительность: 01:30:48
Перевод: Профессиональный (многоголосый закадровый) - СВ Студия
Субтитры: Русские (СВ Студия), французские
Оригинальная аудиодорожка: Французский
Режиссер: Кловис Корнийяк / Clovis Cornillac
В ролях: Феликс Боссюэ, Чеки Карио, Кловис Корнийяк, Тьерри Нёвик, Марго Шателье, Андре Пенверн, Анн Бенуа, Лилу Фогли, Наэль Томас, Октав Боссюэ, Оливье Буана, Марти Берреби, Матео Бурдон, Бернадетт Криссохоидис, Пьер Коньон, Дэни Деон, Эдан Фуссе, Брайс Голдшмидт, Стефани Марго, Лора Матон, Френсис Пеллерин
Описание: Себастьян стал почти совсем взрослым и даже почти не прогуливает школу. У Белль появилось очаровательное потомство. У Пьера и Анжелины тоже все неплохо, и даже старый Сезар ворчит меньше обычного. Всеобщую идиллию прерывает появление загадочного и злобного незнакомца. Он называет себя настоящим хозяином Белль и крадет ее вместе с щенятами. До сих пор Белль помогала Себастьяну выпутываться из любых авантюр, но теперь ему в одиночку предстоит побороться за своего лучшего друга. Получится у Себастьяна восстановить справедливость и вернуть Белль домой?
Дополнительная информация:
Автор релиза -
За заказ перевода "СВ Студии" спасибо меценатам:
(rutracker) ylnian, fotografff, irrlicht, Руслан250381, MumuV, rivaspb, tudakuda, ivan ser, rulle1, caimera, malyaka, viryzhkov, runtotheriver, cineman, w15
(teamhd) xarici, Maike, Stanner, marveltm, n1ko1as, Vaxtang, svarnoy_62, ukollov, TeamHD, fess_master, mishka, foxGmalder, ROFOL
(kinozal) NetOptic, SergeiHa, lobashonok71, raynman, stydent64, Sofia1201
Исходник для рипа - Blu-Ray (FRA) - Belle.et.Sebastien.3.Le.Dernier.Chapitre.2017.FRENCH.COMPLETE.BLURAY-4FR
Сохранены главы с BD
При анализе оригинальной дорожки DTS-HD 5.1 через eac3to выяснилось, что дорожка "дутая", поэтому сборка русской DTS-HD 5.1 была сделана в 16-bit
Рекламы нет!


Сэмпл: http://multi-up.com/1210221
Качество видео: BDRip 1080p
Формат видео: MKV
Видео: MPEG-4, 1920x804 (2,40:1), 12400 kbps, 24.000 fps, 0.335 bit/pixel
Аудио 1: Русский DTS 5.1 / 48 kHz / 1509 kbps / 16-bit
Аудио 2: Французский DTS 5.1 / 48 kHz / 1509 kbps / 24-bit
Формат субтитров: softsub (SRT)

MediaInfo

frame I:1069 Avg QP:13.26 size:233738
frame P:25267 Avg QP:14.40 size:115830
frame B:104406 Avg QP:16.10 size: 50596
consecutive B-frames: 1.6% 1.9% 5.8% 7.3% 7.6% 67.4% 4.3% 0.7% 1.2% 2.2%
mb I I16..4: 6.2% 79.8% 14.1%
mb P I16..4: 2.1% 18.6% 2.2% P16..4: 23.1% 31.2% 13.6% 2.8% 0.2% skip: 6.0%
mb B I16..4: 0.8% 2.9% 0.4% B16..8: 37.0% 30.8% 6.8% direct: 5.8% skip:15.5% L0:43.8% L1:37.9% BI:18.3%
ref P L0: 53.0% 8.5% 25.0% 12.8% 0.6% 0.0%
ref B L0: 87.4% 10.0% 2.6%
ref B L1: 94.9% 5.1%
encoded 130742 frames, 3.27 fps, 12422.41 kb/s
Общее
Уникальный идентификатор : 138715492032849036124997895263419807556 (0x685BA1C9CFB6B2221D7A14BDCF1EB744)
Полное имя : D:\Belle.et.Sebastien.3.le.dernier.chapitre.2017.BDRip.1080p-ylnian_new.mkv
Формат : Matroska
Версия формата : Version 4 / Version 2
Размер файла : 9,79 Гбайт
Продолжительность : 1 ч. 30 м.
Общий поток : 15,4 Мбит/сек
Название фильма : Belle et Sébastien 3, le dernier chapitre 2017 BDRip 1080p - ylnian
Дата кодирования : UTC 2018-09-28 15:11:34
Программа кодирования : mkvmerge v27.0.0 ('Metropolis') 64-bit
Библиотека кодирования : libebml v1.3.6 + libmatroska v1.4.9
Видео
Идентификатор : 1
Формат : AVC
Формат/Информация : Advanced Video Codec
Профиль формата : High@L4.1
Настройки формата : CABAC / 4 Ref Frames
Параметр CABAC формата : Да
Параметр RefFrames формата : 4 кадра
Идентификатор кодека : V_MPEG4/ISO/AVC
Продолжительность : 1 ч. 30 м.
Битрейт : 12,4 Мбит/сек
Ширина : 1920 пикселей
Высота : 804 пикселя
Соотношение сторон : 2,40:1
Режим частоты кадров : Постоянный
Частота кадров : 24,000 кадра/сек
Цветовое пространство : YUV
Субдискретизация насыщенности : 4:2:0
Битовая глубина : 8 бит
Тип развёртки : Прогрессивная
Бит/(Пиксели*Кадры) : 0.335
Размер потока : 7,88 Гбайт (80%)
Заголовок : Belle et Sébastien 3, le dernier chapitre 2017 BDRip 1080p - ylnian
Библиотека кодирования : x264 core 155 r2901 7d0ff22
Настройки программы : cabac=1 / ref=4 / deblock=1:-3:-3 / analyse=0x3:0x133 / me=umh / subme=11 / psy=1 / psy_rd=1.05:0.00 / mixed_ref=1 / me_range=64 / chroma_me=1 / trellis=2 / 8x8dct=1 / cqm=0 / deadzone=21,11 / fast_pskip=0 / chroma_qp_offset=-4 / threads=12 / lookahead_threads=2 / sliced_threads=0 / nr=0 / decimate=1 / interlaced=0 / bluray_compat=0 / constrained_intra=0 / bframes=9 / b_pyramid=2 / b_adapt=2 / b_bias=0 / direct=2 / weightb=1 / open_gop=0 / weightp=2 / keyint=250 / keyint_min=23 / scenecut=40 / intra_refresh=0 / rc_lookahead=250 / rc=crf / mbtree=0 / crf=15.9 / qcomp=0.60 / qpmin=0 / qpmax=69 / qpstep=4 / vbv_maxrate=62500 / vbv_bufsize=78125 / crf_max=0.0 / nal_hrd=none / filler=0 / ip_ratio=1.30 / pb_ratio=1.20 / aq=2:0.80
Язык : French
Default : Да
Forced : Да
Аудио #1
Идентификатор : 2
Формат : DTS
Формат/Информация : Digital Theater Systems
Идентификатор кодека : A_DTS
Продолжительность : 1 ч. 30 м.
Вид битрейта : Постоянный
Битрейт : 1509 Кбит/сек
Каналы : 6 каналов
Расположение каналов : Front: L C R, Side: L R, LFE
Частота : 48,0 КГц
Частота кадров : 93,750 кадра/сек (512 SPF)
Битовая глубина : 16 бит
Метод сжатия : С потерями
Размер потока : 980 Мбайт (10%)
Заголовок : MVO - СВ Студия
Язык : Russian
Default : Да
Forced : Да
Аудио #2
Идентификатор : 3
Формат : DTS
Формат/Информация : Digital Theater Systems
Идентификатор кодека : A_DTS
Продолжительность : 1 ч. 30 м.
Вид битрейта : Постоянный
Битрейт : 1509 Кбит/сек
Каналы : 6 каналов
Расположение каналов : Front: L C R, Side: L R, LFE
Частота : 48,0 КГц
Частота кадров : 93,750 кадра/сек (512 SPF)
Битовая глубина : 24 бит
Метод сжатия : С потерями
Размер потока : 980 Мбайт (10%)
Язык : French
Default : Нет
Forced : Нет
Текст #1
Идентификатор : 4
Формат : UTF-8
Идентификатор кодека : S_TEXT/UTF8
Идентификатор кодека/Информация : UTF-8 Plain Text
Продолжительность : 1 ч. 25 м.
Битрейт : 58 бит/сек
ElementCount : 802
Размер потока : 36,8 Кбайт (0%)
Язык : Russian
Default : Нет
Forced : Нет
Текст #2
Идентификатор : 5
Формат : UTF-8
Идентификатор кодека : S_TEXT/UTF8
Идентификатор кодека/Информация : UTF-8 Plain Text
Продолжительность : 1 ч. 29 м.
Битрейт : 40 бит/сек
ElementCount : 1076
Размер потока : 26,3 Кбайт (0%)
Язык : French
Default : Нет
Forced : Нет
Меню
00:00:00.000 : fr:00:00:00.000
00:08:24.042 : fr:00:08:24.042
00:15:48.375 : fr:00:15:48.375
00:22:10.458 : fr:00:22:10.458
00:29:17.083 : fr:00:29:17.083
00:36:38.375 : fr:00:36:38.375
00:43:30.417 : fr:00:43:30.417
00:50:54.792 : fr:00:50:54.792
00:58:05.667 : fr:00:58:05.667
01:04:48.792 : fr:01:04:48.792
01:11:41.375 : fr:01:11:41.375
01:18:24.708 : fr:01:18:24.708

Скриншоты

[cybertorrent.ru].t56504.torrent 
Торрент: Зарегистрирован [ 2018-09-29 15:35 ] · DF30EB67E0A201B958C4CBC9CC77A6CA368FD7A0

Скачать .torrent

Скачать

49 KB

Статус: проверено
Скачан: 0 раз
Размер: 9,79 GB
terms.php
[Профиль] [ЛС]
Показать сообщения:    
Ответить на тему

Текущее время: 19-Фев 23:51

Часовой пояс: UTC + 3



Вы не можете начинать темы
Вы не можете отвечать на сообщения
Вы не можете редактировать свои сообщения
Вы не можете удалять свои сообщения
Вы не можете голосовать в опросах
Вы не можете прикреплять файлы к сообщениям
Вы можете скачивать файлы