Статистика раздачи
Размер:  254 MB   |    Зарегистрирован:  2 месяца 12 дней   |    Скачан:  0 раз

Полного источника не было: Никогда

 
   
 
 

Keeper ®

Пол:
Не указан
Стаж:
7 месяцев 8 дней
Сообщений:
507

Классическая музыка детям - Шуман. Альбом для юношества (Александр Климов)
Жанр: Детская музыка, Classical
Год издания диска: 2008
Издатель (лейбл): Twic Lyrec
Номер по каталогу:
Аудиокодек: FLAC
Тип рипа: tracks+.cue
Битрейт аудио: lossless
Продолжительность: 00:40:21
Источник: собственный рип
Наличие сканов в содержимом раздачи: да

Треклист:

01. Мелодия (03:10)
02. Марш (01:11)
03. Песенка (02:41)
04. Охотничья песенка (03:10)
05. Пьеска (02:36)
06. Смелый наездник (01:35)
07. Бедный сиротка (03:20)
08. Весёлый крестьянин (01:32)
09. Первая потеря (02:09)
10. Сицилийская песенка (02:34)
11. Хоровая песня (04:25)
12. Дед Мороз (02:16)
13. Песенка Жнецов (01:59)
14. Маленький романс (02:31)
15. Незнакомец (05:12)
-

LOG EAC:

Exact Audio Copy V1.0 beta 3 from 29. August 2011
EAC extraction logfile from 3. March 2016, 23:02
Александр Климов / Классическая музыка детям - Шуман. Альбом для юношества
Used drive : PIONEER DVD-RW DVR-221L Adapter: 2 ID: 0
Read mode : Secure
Utilize accurate stream : Yes
Defeat audio cache : Yes
Make use of C2 pointers : No
Read offset correction : 6
Overread into Lead-In and Lead-Out : No
Fill up missing offset samples with silence : Yes
Delete leading and trailing silent blocks : No
Null samples used in CRC calculations : Yes
Used interface : Installed external ASPI interface
Gap handling : Appended to previous track
Used output format : User Defined Encoder
Selected bitrate : 768 kBit/s
Quality : High
Add ID3 tag : No
Command line compressor : C:\Program Files\Exact Audio Copy\Flac\flac.exe
Additional command line options : -6 -V -T "ARTIST=%artist%" -T "TITLE=%title%" -T "ALBUM=%albumtitle%" -T "DATE=%year%" -T "TRACKNUMBER=%tracknr%" -T "GENRE=%genre%" -T "COMMENT=%comment%" -T "ALBUMARTIST=%albuminterpret%" -T "COMPOSER=%composer%" -T "DISCNUMBER=%cdnumber%" -T "TOTALDISCS=%totalcds%" -T "TOTALTRACKS=%numtracks%" %source% -o %dest%
TOC of the extracted CD
Track | Start | Length | Start sector | End sector
---------------------------------------------------------
1 | 0:00.00 | 3:10.37 | 0 | 14286
2 | 3:10.37 | 1:11.19 | 14287 | 19630
3 | 4:21.56 | 2:41.19 | 19631 | 31724
4 | 7:03.00 | 3:10.24 | 31725 | 45998
5 | 10:13.24 | 2:36.15 | 45999 | 57713
6 | 12:49.39 | 1:35.20 | 57714 | 64858
7 | 14:24.59 | 3:20.14 | 64859 | 79872
8 | 17:44.73 | 1:32.37 | 79873 | 86809
9 | 19:17.35 | 2:09.18 | 86810 | 96502
10 | 21:26.53 | 2:33.73 | 96503 | 108050
11 | 24:00.51 | 4:24.58 | 108051 | 127908
12 | 28:25.34 | 2:15.57 | 127909 | 138090
13 | 30:41.16 | 1:59.07 | 138091 | 147022
14 | 32:40.23 | 2:30.66 | 147023 | 158338
15 | 35:11.14 | 5:11.47 | 158339 | 181710
Track 1
Filename D:\EAC\01 - Мелодия.wav
Pre-gap length 0:00:02.00
Peak level 97.7 %
Extraction speed 4.1 X
Track quality 100.0 %
Test CRC 3E5364D5
Copy CRC 3E5364D5
Track not present in AccurateRip database
Copy OK
Track 2
Filename D:\EAC\02 - Марш.wav
Peak level 97.7 %
Extraction speed 3.4 X
Track quality 100.0 %
Test CRC 1AC56D79
Copy CRC 1AC56D79
Track not present in AccurateRip database
Copy OK
Track 3
Filename D:\EAC\03 - Песенка.wav
Peak level 97.7 %
Extraction speed 4.5 X
Track quality 100.0 %
Test CRC 1099EAC1
Copy CRC 1099EAC1
Track not present in AccurateRip database
Copy OK
Track 4
Filename D:\EAC\04 - Охотничья песенка.wav
Peak level 97.7 %
Extraction speed 5.0 X
Track quality 100.0 %
Test CRC B8E3CA99
Copy CRC B8E3CA99
Track not present in AccurateRip database
Copy OK
Track 5
Filename D:\EAC\05 - Пьеска.wav
Peak level 97.7 %
Extraction speed 5.1 X
Track quality 100.0 %
Test CRC 24E99A66
Copy CRC 24E99A66
Track not present in AccurateRip database
Copy OK
Track 6
Filename D:\EAC\06 - Смелый наездник.wav
Peak level 97.7 %
Extraction speed 3.2 X
Track quality 99.8 %
Test CRC 3F886E94
Copy CRC 3F886E94
Track not present in AccurateRip database
Copy OK
Track 7
Filename D:\EAC\07 - Бедный сиротка.wav
Peak level 97.7 %
Extraction speed 4.6 X
Track quality 99.9 %
Test CRC D9C5CB8A
Copy CRC D9C5CB8A
Track not present in AccurateRip database
Copy OK
Track 8
Filename D:\EAC\08 - Весёлый крестьянин.wav
Peak level 97.7 %
Extraction speed 5.0 X
Track quality 100.0 %
Test CRC BAFBF4EB
Copy CRC BAFBF4EB
Track not present in AccurateRip database
Copy OK
Track 9
Filename D:\EAC\09 - Первая потеря.wav
Peak level 97.7 %
Extraction speed 5.7 X
Track quality 100.0 %
Test CRC F2073FA0
Copy CRC F2073FA0
Track not present in AccurateRip database
Copy OK
Track 10
Filename D:\EAC\10 - Сицилийская песенка.wav
Peak level 97.7 %
Extraction speed 6.0 X
Track quality 100.0 %
Test CRC EAA78057
Copy CRC EAA78057
Track not present in AccurateRip database
Copy OK
Track 11
Filename D:\EAC\11 - Хоровая песня.wav
Peak level 97.7 %
Extraction speed 7.0 X
Track quality 100.0 %
Test CRC 7A6DBCA5
Copy CRC 7A6DBCA5
Track not present in AccurateRip database
Copy OK
Track 12
Filename D:\EAC\12 - Дед Мороз.wav
Peak level 97.7 %
Extraction speed 4.6 X
Track quality 99.9 %
Test CRC A4492EB4
Copy CRC A4492EB4
Track not present in AccurateRip database
Copy OK
Track 13
Filename D:\EAC\13 - Песенка Жнецов.wav
Peak level 97.7 %
Extraction speed 6.1 X
Track quality 100.0 %
Test CRC BFD1DA90
Copy CRC BFD1DA90
Track not present in AccurateRip database
Copy OK
Track 14
Filename D:\EAC\14 - Маленький романс.wav
Peak level 97.7 %
Extraction speed 6.9 X
Track quality 100.0 %
Test CRC 23B7743A
Copy CRC 23B7743A
Track not present in AccurateRip database
Copy OK
Track 15
Filename D:\EAC\15 - Незнакомец.wav
Peak level 97.7 %
Extraction speed 8.0 X
Track quality 100.0 %
Test CRC DAD375C2
Copy CRC DAD375C2
Track not present in AccurateRip database
Copy OK
None of the tracks are present in the AccurateRip database
No errors occurred
End of status report
==== Log checksum F1D5EAC08CAE7924498A25DF0B4390BD172AB409E7567C922CB2A88EB113CC8F ====

LOG (.CUE):

REM GENRE Classical
REM DATE 2008
REM DISCID C609760F
REM COMMENT "ExactAudioCopy v1.0b3"
PERFORMER "Александр Климов"
TITLE "Классическая музыка детям - Шуман. Альбом для юношества"
FILE "01 - Мелодия.wav" WAVE
TRACK 01 AUDIO
TITLE "Мелодия"
PERFORMER "Александр Климов"
INDEX 01 00:00:00
FILE "02 - Марш.wav" WAVE
TRACK 02 AUDIO
TITLE "Марш"
PERFORMER "Александр Климов"
INDEX 01 00:00:00
FILE "03 - Песенка.wav" WAVE
TRACK 03 AUDIO
TITLE "Песенка"
PERFORMER "Александр Климов"
INDEX 01 00:00:00
FILE "04 - Охотничья песенка.wav" WAVE
TRACK 04 AUDIO
TITLE "Охотничья песенка"
PERFORMER "Александр Климов"
INDEX 01 00:00:00
FILE "05 - Пьеска.wav" WAVE
TRACK 05 AUDIO
TITLE "Пьеска"
PERFORMER "Александр Климов"
INDEX 01 00:00:00
FILE "06 - Смелый наездник.wav" WAVE
TRACK 06 AUDIO
TITLE "Смелый наездник"
PERFORMER "Александр Климов"
INDEX 01 00:00:00
FILE "07 - Бедный сиротка.wav" WAVE
TRACK 07 AUDIO
TITLE "Бедный сиротка"
PERFORMER "Александр Климов"
INDEX 01 00:00:00
FILE "08 - Весёлый крестьянин.wav" WAVE
TRACK 08 AUDIO
TITLE "Весёлый крестьянин"
PERFORMER "Александр Климов"
INDEX 01 00:00:00
FILE "09 - Первая потеря.wav" WAVE
TRACK 09 AUDIO
TITLE "Первая потеря"
PERFORMER "Александр Климов"
INDEX 01 00:00:00
FILE "10 - Сицилийская песенка.wav" WAVE
TRACK 10 AUDIO
TITLE "Сицилийская песенка"
PERFORMER "Александр Климов"
INDEX 01 00:00:00
FILE "11 - Хоровая песня.wav" WAVE
TRACK 11 AUDIO
TITLE "Хоровая песня"
PERFORMER "Александр Климов"
INDEX 01 00:00:00
FILE "12 - Дед Мороз.wav" WAVE
TRACK 12 AUDIO
TITLE "Дед Мороз"
PERFORMER "Александр Климов"
INDEX 01 00:00:00
FILE "13 - Песенка Жнецов.wav" WAVE
TRACK 13 AUDIO
TITLE "Песенка Жнецов"
PERFORMER "Александр Климов"
INDEX 01 00:00:00
FILE "14 - Маленький романс.wav" WAVE
TRACK 14 AUDIO
TITLE "Маленький романс"
PERFORMER "Александр Климов"
INDEX 01 00:00:00
FILE "15 - Незнакомец.wav" WAVE
TRACK 15 AUDIO
TITLE "Незнакомец"
PERFORMER "Александр Климов"
INDEX 01 00:00:00
-
[cybertorrent.ru].t56559.torrent 
Торрент: Зарегистрирован [ 2018-07-11 16:09 ] · F5A7AE781105B99AD43495289E1D860B15FB3EAE

Скачать .torrent

Скачать

22 KB

Статус: проверено
Скачан: 0 раз
Размер: 254 MB
Профиль [ЛС]
Показать сообщения:    

Текущее время: 24-Сен 07:48

Часовой пояс: UTC ± 0



Вы не можете начинать темы
Вы не можете отвечать на сообщения
Вы не можете редактировать свои сообщения
Вы не можете удалять свои сообщения
Вы не можете голосовать в опросах
Вы не можете прикреплять файлы к сообщениям
Вы можете скачивать файлы
Torrents24.ru открытый BitTorrent Torrents24.pl открытый BitTorrent CyberTorrent.ru открытый BitTorrent BtList.ru рейтинг BitTorrent трекеров Яндекс.Метрика