BitTorrent клиенты



8 подруг Оушена / Ocean's Eight (Гэри Росс / Gary Ross) [2018, США, боевик, триллер, комедия, криминал, BDRip-AVC] Dub + Original (Eng) + Sub (Rus, Eng)

Ответить на тему
Статистика раздачи
Размер:  2,89 GB   |    Зарегистрирован:  4 месяца 20 дней   |    Скачан:  0 раз

Полного источника не было: Никогда

 
   
 
 
Автор Сообщение

kex ®

Пол: Не указан

Стаж: 1 год

Сообщений: 630

Создавать темы 29-Сен-2018 15:33

[Цитировать]

8 подруг Оушена / Ocean's Eight
«Украдут не только ваше внимание»
- Год выхода: 2018
Выпущено: США / Warner Bros. Pictures
Жанр: боевик, триллер, комедия, криминал
Продолжительность: 01:50:09
Перевод: Профессиональный (полное дублирование)
Субтитры: Русские (форс., полные), Английские (полные, SDH, SDH-Colored)
Оригинальная аудиодорожка: Английская
Навигация по главам: Есть (13 глав)-Режиссер:
Гэри Росс / Gary Ross-В ролях:
Сандра Буллок (Debbie Ocean), Кейт Бланшетт (Lou), Энн Хэтэуэй (Daphne Kluger), Хелена Бонем Картер (Rose Weil), Рианна (Nine Ball), Сара Полсон (Tammy), Минди Кейлинг (Amita), Ричард Армитедж (Claude Becker), Аквафина (Constance), Гриффин Данн (Parole Board Officer)-О фильме:
Пять лет, восемь месяцев, 12 дней… и далее. Именно столько Дебби Оушен разрабатывала план величайшего ограбления своей жизни.
Она точно знает, что для него потребуется, — команда лучших в своем деле, начиная с ее давней сообщницы Лу Миллер. Вместе они собирают команду уникальных специалистов. Их цель — неотразимые 150 миллионов долларов в бриллиантах — в бриллиантах на шее всемирно известной актрисы Дафны Клюгер, к которой будет приковано всеобщее внимание на главном событии года — бале в Метрополитен-музее.
Сам план бесподобен, но и реализация должна быть безупречна, если они хотят войти и выйти с драгоценностями в руках. Прямо у всех на виду.-Релиз групп | | IMDB | КиноПоиск | Сэмпл |-Качество: BDRip-AVC [Ocean's.Eight.2018.BluRay.1080p.AVC.Atmos.TrueHD7.1-MTeam]
Формат: MKV
Видео: 1152x482 (2,40:1), 23.976 fps, x264 ~2787 kbps avg, 0.209 bit/pixel
Аудио #1: 48 kHz, AC3 Dolby Digital, 3/2 (L,C,R,l,r) + LFE ch, ~448.00 kbps (RUS)
Аудио #2: 48 kHz, AC3 Dolby Digital, 3/2 (L,C,R,l,r) + LFE ch, ~448.00 kbps (ENG)
Формат субтитров: Softsub (.srt*)-

Скриншоты

-

MediaInfo

Код:Общее
Полное имя : D:\8_Podrug_Oushena_2018_BDRip-AVC_by_Dalemake.mkv
Формат : Matroska
Версия формата : Version 4 / Version 2
Размер файла : 2,89 Гбайт
Продолжительность : 1 ч. 50 м.
Общий поток : 3758 Кбит/сек
Название фильма : [Ocean's_Eight_2018_All Films_by Dalemake]
Дата кодирования : UTC 2018-09-09 08:02:24
Программа кодирования : mkvmerge v7.8.0 ('River Man') 32bit built on Apr 3 2015 12:11:22
Библиотека кодирования : libebml v1.3.1 + libmatroska v1.4.2
DURATION : 01:43:41.014000000
NUMBER_OF_FRAMES : 1894
NUMBER_OF_BYTES : 72548
_STATISTICS_WRITING_APP : mkvmerge v7.8.0 ('River Man') 32bit built on Apr 3 2015 12:11:22
_STATISTICS_WRITING_DATE_UTC : 2018-09-09 08:02:24
_STATISTICS_TAGS : BPS DURATION NUMBER_OF_FRAMES NUMBER_OF_BYTES
Видео
Идентификатор : 1
Формат : AVC
Формат/Информация : Advanced Video Codec
Профиль формата : High@L4.1
Параметр CABAC формата : Да
Параметр ReFrames формата : 14 кадров
Идентификатор кодека : V_MPEG4/ISO/AVC
Продолжительность : 1 ч. 50 м.
Битрейт : 2787 Кбит/сек
Ширина : 1152 пикселя
Высота : 482 пикселя
Соотношение сторон : 2,40:1
Режим частоты кадров : Постоянный
Частота кадров : 23,976 кадра/сек
Цветовое пространство : YUV
Субдискретизация насыщенности : 4:2:0
Битовая глубина : 8 бит
Тип развёртки : Прогрессивная
Бит/(Пиксели*Кадры) : 0.209
Размер потока : 2,14 Гбайт (74%)
Заголовок : [Ocean's_Eight_2018_All Films_by Dalemake]
Библиотека кодирования : x264 core 155 r2901 7d0ff22
Настройки программы : cabac=1 / ref=14 / deblock=1:-3:-2 / analyse=0x3:0x133 / me=umh / subme=10 / psy=1 / psy_rd=1.00:0.00 / mixed_ref=1 / me_range=48 / chroma_me=1 / trellis=2 / 8x8dct=1 / cqm=0 / deadzone=21,11 / fast_pskip=1 / chroma_qp_offset=-4 / threads=6 / lookahead_threads=1 / sliced_threads=0 / nr=0 / decimate=0 / interlaced=0 / bluray_compat=0 / constrained_intra=0 / bframes=12 / b_pyramid=2 / b_adapt=2 / b_bias=0 / direct=1 / weightb=1 / open_gop=0 / weightp=2 / keyint=240 / keyint_min=23 / scenecut=40 / intra_refresh=0 / rc_lookahead=60 / rc=crf / mbtree=0 / crf=17.3 / qcomp=0.60 / qpmin=0 / qpmax=69 / qpstep=4 / vbv_maxrate=50000 / vbv_bufsize=62500 / crf_max=0.0 / nal_hrd=none / filler=0 / ip_ratio=1.40 / pb_ratio=1.35 / aq=1:1.00
Язык : English
Default : Да
Forced : Нет
DURATION : 01:50:09.656000000
NUMBER_OF_FRAMES : 158473
NUMBER_OF_BYTES : 2362558664
_STATISTICS_WRITING_APP : mkvmerge v7.8.0 ('River Man') 32bit built on Apr 3 2015 12:11:22
_STATISTICS_WRITING_DATE_UTC : 2018-09-09 08:02:24
_STATISTICS_TAGS : BPS DURATION NUMBER_OF_FRAMES NUMBER_OF_BYTES
Аудио #1
Идентификатор : 2
Формат : AC-3
Формат/Информация : Audio Coding 3
Расширение режима : CM (complete main)
Параметр Endianness формата : Big
Идентификатор кодека : A_AC3
Продолжительность : 1 ч. 50 м.
Вид битрейта : Постоянный
Битрейт : 448 Кбит/сек
Каналы : 6 каналов
Расположение каналов : Front: L C R, Side: L R, LFE
Частота : 48,0 КГц
Метод сжатия : С потерями
Размер потока : 353 Мбайт (12%)
Заголовок : Dub - UHD EUR
Язык : Russian
Default : Да
Forced : Нет
Аудио #2
Идентификатор : 3
Формат : AC-3
Формат/Информация : Audio Coding 3
Расширение режима : CM (complete main)
Параметр Endianness формата : Big
Идентификатор кодека : A_AC3
Продолжительность : 1 ч. 50 м.
Вид битрейта : Постоянный
Битрейт : 448 Кбит/сек
Каналы : 6 каналов
Расположение каналов : Front: L C R, Side: L R, LFE
Частота : 48,0 КГц
Метод сжатия : С потерями
Размер потока : 353 Мбайт (12%)
Заголовок : Original
Язык : English
Default : Нет
Forced : Нет
Текст #1
Идентификатор : 4
Формат : UTF-8
Идентификатор кодека : S_TEXT/UTF8
Идентификатор кодека/Информация : UTF-8 Plain Text
Заголовок : Forced
Язык : Russian
Default : Да
Forced : Нет
Текст #2
Идентификатор : 5
Формат : UTF-8
Идентификатор кодека : S_TEXT/UTF8
Идентификатор кодека/Информация : UTF-8 Plain Text
Заголовок : Full
Язык : Russian
Default : Нет
Forced : Нет
Текст #3
Идентификатор : 6
Формат : UTF-8
Идентификатор кодека : S_TEXT/UTF8
Идентификатор кодека/Информация : UTF-8 Plain Text
Заголовок : Full
Язык : English
Default : Нет
Forced : Нет
Текст #4
Идентификатор : 7
Формат : UTF-8
Идентификатор кодека : S_TEXT/UTF8
Идентификатор кодека/Информация : UTF-8 Plain Text
Заголовок : Full - SDH
Язык : English
Default : Нет
Forced : Нет
Текст #5
Идентификатор : 8
Формат : UTF-8
Идентификатор кодека : S_TEXT/UTF8
Идентификатор кодека/Информация : UTF-8 Plain Text
Заголовок : Full - SDH - Colored
Язык : English
Default : Нет
Forced : Нет
Меню
00:00:00.000 : :Chapter 01
00:11:18.259 : :Chapter 02
00:20:06.747 : :Chapter 03
00:31:37.103 : :Chapter 04
00:41:29.612 : :Chapter 05
00:49:18.913 : :Chapter 06
00:56:22.295 : :Chapter 07
01:05:50.070 : :Chapter 08
01:16:32.546 : :Chapter 09
01:27:01.173 : :Chapter 10
01:35:42.153 : :Chapter 11
01:44:08.658 : :Chapter 12
01:50:08.435 : :Chapter 13
-
[cybertorrent.ru].t56560.torrent 
Торрент: Зарегистрирован [ 2018-09-29 15:35 ] · 45D184739169F8AF7978AD91A1C29C336D7858F1

Скачать .torrent

Скачать

15 KB

Статус: проверено
Скачан: 0 раз
Размер: 2,89 GB
terms.php
[Профиль] [ЛС]
Показать сообщения:    
Ответить на тему

Текущее время: 20-Фев 00:26

Часовой пояс: UTC + 3



Вы не можете начинать темы
Вы не можете отвечать на сообщения
Вы не можете редактировать свои сообщения
Вы не можете удалять свои сообщения
Вы не можете голосовать в опросах
Вы не можете прикреплять файлы к сообщениям
Вы можете скачивать файлы