Статистика раздачи
Размер:  235 MB   |    Зарегистрирован:  2 месяца 7 дней   |    Скачан:  0 раз

Полного источника не было: Никогда

 
   
 
 

Keeper ®

Пол:
Не указан
Стаж:
7 месяцев 3 дня
Сообщений:
507

Классическая музыка для детей. Антонио Вивальди/ A. Vivaldi - Времена года (Владимир Брусс)
Жанр: Детская музыка, Classical
Год издания диска: 2010
Издатель (лейбл): Jewel Case
Номер по каталогу:
Аудиокодек: FLAC
Тип рипа: tracks+.cue
Битрейт аудио: lossless
Продолжительность: 00:42:15
Источник: собственный рип
Наличие сканов в содержимом раздачи: да

Треклист:

01. Concert #1 Spring: 1.Allegro (03:10)
02. Concert #1 Spring: 2.Largo (03:20)
03. Concert #1 Spring: 3.Allegro (Danza pastorale) (04:23)
04. Concert #2 Summer: 1.Allegro non molto-Allegro (05:45)
05. Concert #2 Summer: 2.Adagio - Presto - Adagio (02:08)
06. Concert #2 Summer: 3.Presto (Tempo impetuoso d'estate) (02:46)
07. Concert #3 Automn: 1.Allegro (Ballo, e canto de'villanelli) (05:25)
08. Concert #3 Automn: 2.Adagiomolto (Ubriachi dormienti) (02:50)
09. Concert #3 Automn: 3.Allegro (La caccia) (03:34)
10. Concert #4 Winter: 1.Allegro non molto (03:19)
11. Concert #4 Winter: 2.Largo (02:20)
12. Concert #4 Winter: 3.Allegro (03:15)
-

LOG EAC:

Exact Audio Copy V1.0 beta 3 from 29. August 2011
EAC extraction logfile from 5. March 2016, 22:29
Владимир Брусс / Антонио Вивальди. Классическая музыка для детей. Времена года
Used drive : PIONEER DVD-RW DVR-221L Adapter: 2 ID: 0
Read mode : Secure
Utilize accurate stream : Yes
Defeat audio cache : Yes
Make use of C2 pointers : No
Read offset correction : 6
Overread into Lead-In and Lead-Out : No
Fill up missing offset samples with silence : Yes
Delete leading and trailing silent blocks : No
Null samples used in CRC calculations : Yes
Used interface : Installed external ASPI interface
Gap handling : Appended to previous track
Used output format : User Defined Encoder
Selected bitrate : 768 kBit/s
Quality : High
Add ID3 tag : No
Command line compressor : C:\Program Files\Exact Audio Copy\Flac\flac.exe
Additional command line options : -6 -V -T "ARTIST=%artist%" -T "TITLE=%title%" -T "ALBUM=%albumtitle%" -T "DATE=%year%" -T "TRACKNUMBER=%tracknr%" -T "GENRE=%genre%" -T "COMMENT=%comment%" -T "ALBUMARTIST=%albuminterpret%" -T "COMPOSER=%composer%" -T "DISCNUMBER=%cdnumber%" -T "TOTALDISCS=%totalcds%" -T "TOTALTRACKS=%numtracks%" %source% -o %dest%
TOC of the extracted CD
Track | Start | Length | Start sector | End sector
---------------------------------------------------------
1 | 0:00.00 | 3:10.00 | 0 | 14249
2 | 3:10.00 | 3:20.00 | 14250 | 29249
3 | 6:30.00 | 4:23.00 | 29250 | 48974
4 | 10:53.00 | 5:45.00 | 48975 | 74849
5 | 16:38.00 | 2:08.00 | 74850 | 84449
6 | 18:46.00 | 2:46.00 | 84450 | 96899
7 | 21:32.00 | 5:25.00 | 96900 | 121274
8 | 26:57.00 | 2:50.00 | 121275 | 134024
9 | 29:47.00 | 3:34.00 | 134025 | 150074
10 | 33:21.00 | 3:19.00 | 150075 | 164999
11 | 36:40.00 | 2:20.00 | 165000 | 175499
12 | 39:00.00 | 3:15.00 | 175500 | 190124
Track 1
Filename D:\EAC\01 - Concert #1 Spring- 1.Allegro.wav
Pre-gap length 0:00:02.00
Peak level 100.0 %
Extraction speed 4.7 X
Track quality 100.0 %
Test CRC 5D611A5B
Copy CRC 5D611A5B
Track not present in AccurateRip database
Copy OK
Track 2
Filename D:\EAC\02 - Concert #1 Spring- 2.Largo.wav
Peak level 26.6 %
Extraction speed 5.1 X
Track quality 100.0 %
Test CRC 1C574A4E
Copy CRC 1C574A4E
Track not present in AccurateRip database
Copy OK
Track 3
Filename D:\EAC\03 - Concert #1 Spring- 3.Allegro (Danza pastorale).wav
Peak level 100.0 %
Extraction speed 5.8 X
Track quality 100.0 %
Test CRC F4E779AC
Copy CRC F4E779AC
Track not present in AccurateRip database
Copy OK
Track 4
Filename D:\EAC\04 - Concert #2 Summer- 1.Allegro non molto-Allegro.wav
Peak level 100.0 %
Extraction speed 6.4 X
Track quality 100.0 %
Test CRC 9BB93726
Copy CRC 9BB93726
Track not present in AccurateRip database
Copy OK
Track 5
Filename D:\EAC\05 - Concert #2 Summer- 2.Adagio - Presto - Adagio.wav
Peak level 100.0 %
Extraction speed 5.3 X
Track quality 100.0 %
Test CRC D96BD002
Copy CRC D96BD002
Track not present in AccurateRip database
Copy OK
Track 6
Filename D:\EAC\06 - Concert #2 Summer- 3.Presto (Tempo impetuoso d'estate).wav
Peak level 100.0 %
Extraction speed 4.8 X
Track quality 99.9 %
Test CRC 5DA9FAC5
Copy CRC 5DA9FAC5
Track not present in AccurateRip database
Copy OK
Track 7
Filename D:\EAC\07 - Concert #3 Automn- 1.Allegro (Ballo, e canto de'villanelli).wav
Peak level 100.0 %
Extraction speed 6.3 X
Track quality 99.9 %
Test CRC 646F7C1F
Copy CRC 646F7C1F
Track not present in AccurateRip database
Copy OK
Track 8
Filename D:\EAC\08 - Concert #3 Automn- 2.Adagiomolto (Ubriachi dormienti).wav
Peak level 31.1 %
Extraction speed 5.3 X
Track quality 99.9 %
Test CRC 1446926D
Copy CRC 1446926D
Track not present in AccurateRip database
Copy OK
Track 9
Filename D:\EAC\09 - Concert #3 Automn- 3.Allegro (La caccia).wav
Peak level 100.0 %
Extraction speed 7.3 X
Track quality 100.0 %
Test CRC 72648D58
Copy CRC 72648D58
Track not present in AccurateRip database
Copy OK
Track 10
Filename D:\EAC\10 - Concert #4 Winter- 1.Allegro non molto.wav
Peak level 100.0 %
Extraction speed 7.4 X
Track quality 100.0 %
Test CRC 846316C2
Copy CRC 846316C2
Track not present in AccurateRip database
Copy OK
Track 11
Filename D:\EAC\11 - Concert #4 Winter- 2.Largo.wav
Peak level 56.0 %
Extraction speed 7.2 X
Track quality 100.0 %
Test CRC BA98FF39
Copy CRC BA98FF39
Track not present in AccurateRip database
Copy OK
Track 12
Filename D:\EAC\12 - Concert #4 Winter- 3.Allegro.wav
Peak level 100.0 %
Extraction speed 7.9 X
Track quality 100.0 %
Test CRC DDEBDABC
Copy CRC DDEBDABC
Track not present in AccurateRip database
Copy OK
None of the tracks are present in the AccurateRip database
No errors occurred
End of status report
==== Log checksum 8E3528EB27628203C66382CBF81ABB8498D7B79B7176B7216FA50501C6C6937F ====

LOG (.CUE):

REM GENRE Classical
REM DATE 2010
REM DISCID 8909E70C
REM COMMENT "ExactAudioCopy v1.0b3"
PERFORMER "Владимир Брусс"
TITLE "Антонио Вивальди. Классическая музыка для детей. Времена года"
FILE "01 - Concert #1 Spring- 1.Allegro.wav" WAVE
TRACK 01 AUDIO
TITLE "Concert #1 Spring: 1.Allegro"
PERFORMER "Владимир Брусс"
FLAGS DCP
INDEX 01 00:00:00
FILE "02 - Concert #1 Spring- 2.Largo.wav" WAVE
TRACK 02 AUDIO
TITLE "Concert #1 Spring: 2.Largo"
PERFORMER "Владимир Брусс"
FLAGS DCP
INDEX 01 00:00:00
FILE "03 - Concert #1 Spring- 3.Allegro (Danza pastorale).wav" WAVE
TRACK 03 AUDIO
TITLE "Concert #1 Spring: 3.Allegro (Danza pastorale)"
PERFORMER "Владимир Брусс"
FLAGS DCP
INDEX 01 00:00:00
FILE "04 - Concert #2 Summer- 1.Allegro non molto-Allegro.wav" WAVE
TRACK 04 AUDIO
TITLE "Concert #2 Summer: 1.Allegro non molto-Allegro"
PERFORMER "Владимир Брусс"
FLAGS DCP
INDEX 01 00:00:00
FILE "05 - Concert #2 Summer- 2.Adagio - Presto - Adagio.wav" WAVE
TRACK 05 AUDIO
TITLE "Concert #2 Summer: 2.Adagio - Presto - Adagio"
PERFORMER "Владимир Брусс"
FLAGS DCP
INDEX 01 00:00:00
FILE "06 - Concert #2 Summer- 3.Presto (Tempo impetuoso d'estate).wav" WAVE
TRACK 06 AUDIO
TITLE "Concert #2 Summer: 3.Presto (Tempo impetuoso d'estate)"
PERFORMER "Владимир Брусс"
FLAGS DCP
INDEX 01 00:00:00
FILE "07 - Concert #3 Automn- 1.Allegro (Ballo, e canto de'villanelli).wav" WAVE
TRACK 07 AUDIO
TITLE "Concert #3 Automn: 1.Allegro (Ballo, e canto de'villanelli)"
PERFORMER "Владимир Брусс"
FLAGS DCP
INDEX 01 00:00:00
FILE "08 - Concert #3 Automn- 2.Adagiomolto (Ubriachi dormienti).wav" WAVE
TRACK 08 AUDIO
TITLE "Concert #3 Automn: 2.Adagiomolto (Ubriachi dormienti)"
PERFORMER "Владимир Брусс"
FLAGS DCP
INDEX 01 00:00:00
FILE "09 - Concert #3 Automn- 3.Allegro (La caccia).wav" WAVE
TRACK 09 AUDIO
TITLE "Concert #3 Automn: 3.Allegro (La caccia)"
PERFORMER "Владимир Брусс"
FLAGS DCP
INDEX 01 00:00:00
FILE "10 - Concert #4 Winter- 1.Allegro non molto.wav" WAVE
TRACK 10 AUDIO
TITLE "Concert #4 Winter: 1.Allegro non molto"
PERFORMER "Владимир Брусс"
FLAGS DCP
INDEX 01 00:00:00
FILE "11 - Concert #4 Winter- 2.Largo.wav" WAVE
TRACK 11 AUDIO
TITLE "Concert #4 Winter: 2.Largo"
PERFORMER "Владимир Брусс"
FLAGS DCP
INDEX 01 00:00:00
FILE "12 - Concert #4 Winter- 3.Allegro.wav" WAVE
TRACK 12 AUDIO
TITLE "Concert #4 Winter: 3.Allegro"
PERFORMER "Владимир Брусс"
FLAGS DCP
INDEX 01 00:00:00
-Доп. информация: Произведения для детей есть среди работ практически каждого композитора, однако, редко кто полностью посвящал свое творчество детям. Часто подобные произведения композиторы писали для того, чтобы обучить музыке собственных чад, как это было, например, в случае с Иоганном Себастьяном Бахом. В данном сборнике Владимир Брусс попробовал переложить Вивальди - Времена года. К композиторам-педагогам относятся Карл Орф, Дмитрий Кабалевский, Бела Барток, Михаил Сильвестров и другие.-
[cybertorrent.ru].t56560.torrent 
Торрент: Зарегистрирован [ 2018-07-11 16:09 ] · D525D84E2E3F4C78F2693B192E0E0657A469F1D7

Скачать .torrent

Скачать

20 KB

Статус: проверено
Скачан: 0 раз
Размер: 235 MB
Профиль [ЛС]
Показать сообщения:    

Текущее время: 18-Сен 21:38

Часовой пояс: UTC ± 0



Вы не можете начинать темы
Вы не можете отвечать на сообщения
Вы не можете редактировать свои сообщения
Вы не можете удалять свои сообщения
Вы не можете голосовать в опросах
Вы не можете прикреплять файлы к сообщениям
Вы можете скачивать файлы
Torrents24.ru открытый BitTorrent Torrents24.pl открытый BitTorrent CyberTorrent.ru открытый BitTorrent BtList.ru рейтинг BitTorrent трекеров Яндекс.Метрика