BitTorrent клиенты



Удивительные странствия Геракла / Геркулес в лабиринте минотавра / Hercules in the Maze of the Minotaur / Hercules: The Legendary Journeys (Джош Бекер / Josh Becker) [1994, США, Новая Зеландия, приключения, DVDRip] 2x AVO (Визгунов, Живов)

Ответить на тему
Статистика раздачи
Размер:  1,37 GB   |    Зарегистрирован:  4 месяца 22 дня   |    Скачан:  0 раз

Полного источника не было: Никогда

 
   
 
 
Автор Сообщение

StartSoft ®

Пол: Не указан

Стаж: 1 год

Сообщений: 1587

Создавать темы 30-Сен-2018 16:58

[Цитировать]

Геркулес:
Женщины-амазонки | Потерянное королевство | Огненный круг | Лабиринт минотавра
Геркулес, легендарные путешествия: Геркулес в лабиринте минотавра
Hercules: The Legendary Journeys: Hercules in the Maze of the Minotaur

Страна: США, Новая Зеландия
Жанр: приключения, фэнтези
Продолжительность: 01:30:27
Год выпуска: 1994
Перевод #1: Авторский (одноголосый закадровый: Сергей Визгунов)
Перевод #2: Авторский (одноголосый закадровый: Юрий Живов)
Русские субтитры: нет-Режиссёр: Джош Бекер /Josh Becker/
В ролях: Кевин Сорбо /Kevin Sorbo/, Энтони Куинн /Anthony Quinn/, Тоуни Китаен /Tawny Kitaen/, Майкл Херст /Michael Hurst/-Описание: Отчаявшиеся посланцы просят Геркулеса и его друга Иола поехать в отдаленную Алтурию, страну, проклятую ужасным чудовищем Минотавром, получеловеком-полубыком. Он заманивает людей в свой лабиринт, где их ожидает страшная судьба. И Геркулес вступает в неравную схватку с этим мифическим существом... © VHS-Релиз: |
RoxMarty ... перевод Сергей Визгунова
ОСГ ... перевод Юрия Живова
Sleon2002 ... исходник для рипа
Áлексис ... синхронизация-Качество: DVDRip
Формат: AVI
Видео: 640x480 (1.33:1), 23.976 fps, XviD build 65 ~1576 kbps avg, 0.21 bit/pixel
Аудио #1: 48 kHz, AC3 Dolby Digital, 2/0 (dual-mono) ch, ~192.00 kbps avg (Визгунов)
Аудио #2: 48 kHz, AC3 Dolby Digital, 2/0 (dual-mono) ch, ~192.00 kbps avg (Живов)
Аудио #3: 48 kHz, AC3 Dolby Digital, 2/0 (stereo) ch, ~192.00 kbps avg (оригинал)
Субтитры: нет
Сэмпл: http://multi-up.com/1210382

Подробные технические данные

General
Complete name : D:\0x05 - Hercules in the Maze of the Minotaur [Визгунов+Живов+Eng].avi
Format : AVI
Format/Info : Audio Video Interleave
File size : 1.37 GiB
Duration : 1 h 30 min
Overall bit rate : 2 173 kb/s
Writing application : VirtualDubMod 1.5.10.2 (build 2540/release)
Writing library : VirtualDubMod build 2540/release
Video
ID : 0
Format : MPEG-4 Visual
Format profile : Advanced Simple@L5
Format settings : BVOP2 / Custom Matrix
Format settings, BVOP : 2
Format settings, QPel : No
Format settings, GMC : No warppoints
Format settings, Matrix : Custom
Codec ID : XVID
Codec ID/Hint : XviD
Duration : 1 h 30 min
Bit rate : 1 577 kb/s
Width : 640 pixels
Height : 480 pixels
Display aspect ratio : 4:3
Frame rate : 23.976 (24000/1001) FPS
Color space : YUV
Chroma subsampling : 4:2:0
Bit depth : 8 bits
Scan type : Progressive
Compression mode : Lossy
Bits/(Pixel*Frame) : 0.214
Stream size : 1 021 MiB (73%)
Writing library : XviD 65
Audio #1
ID : 1
Format : AC-3
Format/Info : Audio Coding 3
Codec ID : 2000
Duration : 1 h 30 min
Bit rate mode : Constant
Bit rate : 192 kb/s
Channel(s) : 2 channels
Channel positions : Front: L R
Sampling rate : 48.0 kHz
Frame rate : 31.250 FPS (1536 SPF)
Bit depth : 16 bits
Compression mode : Lossy
Stream size : 124 MiB (9%)
Alignment : Split accross interleaves
Interleave, duration : 42 ms (1.00 video frame)
Interleave, preload duratio : 500 ms
Service kind : Complete Main
Audio #2
ID : 2
Format : AC-3
Format/Info : Audio Coding 3
Codec ID : 2000
Duration : 1 h 30 min
Bit rate mode : Constant
Bit rate : 192 kb/s
Channel(s) : 2 channels
Channel positions : Front: L R
Sampling rate : 48.0 kHz
Frame rate : 31.250 FPS (1536 SPF)
Bit depth : 16 bits
Compression mode : Lossy
Stream size : 124 MiB (9%)
Alignment : Split accross interleaves
Interleave, duration : 42 ms (1.00 video frame)
Interleave, preload duratio : 500 ms
Service kind : Complete Main
Audio #3
ID : 3
Format : AC-3
Format/Info : Audio Coding 3
Codec ID : 2000
Duration : 1 h 30 min
Bit rate mode : Constant
Bit rate : 192 kb/s
Channel(s) : 2 channels
Channel positions : Front: L R
Sampling rate : 48.0 kHz
Frame rate : 31.250 FPS (1536 SPF)
Bit depth : 16 bits
Compression mode : Lossy
Stream size : 124 MiB (9%)
Alignment : Split accross interleaves
Interleave, duration : 42 ms (1.00 video frame)
Interleave, preload duratio : 500 ms
Service kind : Complete Main
[cybertorrent.ru].t56700.torrent 
Торрент: Зарегистрирован [ 2018-09-30 17:00 ] · EC047B39E228861CEED6CB496CE47F499336EE58

Скачать .torrent

Скачать

14 KB

Статус: проверено
Скачан: 0 раз
Размер: 1,37 GB
terms.php
[Профиль] [ЛС]
Показать сообщения:    
Ответить на тему

Текущее время: 23-Фев 16:36

Часовой пояс: UTC + 3



Вы не можете начинать темы
Вы не можете отвечать на сообщения
Вы не можете редактировать свои сообщения
Вы не можете удалять свои сообщения
Вы не можете голосовать в опросах
Вы не можете прикреплять файлы к сообщениям
Вы можете скачивать файлы