BitTorrent клиенты



Jamie Cullum • Montreux Jazz Festival [2018, Vocal Jazz, Swing, HDTV, 720p]

Ответить на тему
Статистика раздачи
Размер:  8,96 GB   |    Зарегистрирован:  4 месяца 18 дней   |    Скачан:  0 раз

Полного источника не было: 1 месяц 30 дней

 
   
 
 
Автор Сообщение

Поля ®

Пол: Не указан

Стаж: 1 год

Сообщений: 564

Создавать темы 01-Окт-2018 16:03

[Цитировать]


Jamie Cullum


Жанр: Vocal Jazz, Swing
Продолжительность: 01:50:06
Год выпуска: 2018
Качество: HDTV
Разрешение видео/развертка: 720p
Контейнер: TS
Видео кодек: H.264
Аудио кодек: AC3
Видео: MPEG4 Video (H264) 1280x720 50fps 10.2 Mb/s
Аудио 1: MPEG Audio 48000Hz stereo 192kbps
Аудио 2: Dolby AC3 48000Hz 6ch 448kbps

Треклист

01. Get Your Way
02. Don't You Know (Ray Charles cover)
03. Work of Art
04. I'm All Over It Now
05. Next Year Baby
06. What a Diff'rence a Day Made (Maria Grever cover)
07. These Are The Days
08. Don't Stop the Music (Rihanna cover) (With Drake's 'Fake Love' snippet)
09. Taller
10. No More Hard Times
11. You and Me Are Gone
12. Mankind
13. Run To The Rock
14. When I Get Famous
15. All at Sea
16. High and Dry (Radiohead cover) (dedicated to Claude Nobs, the… more )
17. Mixtape
18. I've Got You Under My Skin (Cole Porter cover)

Отчёт MediaInfo / BDInfo

General
ID : 12300 (0x300C)
Complete name : H:\Jamie Cullum - Montreux Jazz Festival 2018.ts
Format : MPEG-TS
File size : 8.96 GiB
Duration : 1 h 50 min
Overall bit rate mode : Variable
Overall bit rate : 11.6 Mb/s
Video
ID : 542 (0x21E)
Menu ID : 17204 (0x4334)
Format : AVC
Format/Info : Advanced Video Codec
Format profile : High@L4
Format settings : CABAC / 3 Ref Frames
Format settings, CABAC : Yes
Format settings, ReFrames : 3 frames
Format settings, GOP : M=2, N=24
Codec ID : 27
Duration : 1 h 50 min
Bit rate : 10.2 Mb/s
Width : 1 280 pixels
Height : 720 pixels
Display aspect ratio : 16:9
Frame rate : 50.000 FPS
Standard : Component
Color space : YUV
Chroma subsampling : 4:2:0
Bit depth : 8 bits
Scan type : Progressive
Bits/(Pixel*Frame) : 0.222
Stream size : 7.87 GiB (88%)
Encryption : TPS-Crypt or Viaccess
Color range : Limited
Color primaries : BT.709
Transfer characteristics : BT.709
Matrix coefficients : BT.709
Audio #1
ID : 543 (0x21F)
Menu ID : 17204 (0x4334)
Format : MPEG Audio
Format version : Version 1
Format profile : Layer 2
Format settings : Joint stereo / Intensity Stereo + MS Stereo
Codec ID : 3
Duration : 1 h 50 min
Bit rate mode : Constant
Bit rate : 192 kb/s
Channel(s) : 2 channels
Sampling rate : 48.0 kHz
Frame rate : 41.667 FPS (1152 SPF)
Compression mode : Lossy
Delay relative to video : -60 ms
Stream size : 151 MiB (2%)
Language : French
Language, more info : Clean effects
Encryption : TPS-Crypt or Viaccess
Audio #2
ID : 544 (0x220)
Menu ID : 17204 (0x4334)
Format : MPEG Audio
Format version : Version 1
Format profile : Layer 2
Format settings : Joint stereo / Intensity Stereo + MS Stereo
Codec ID : 3
Duration : 1 h 50 min
Bit rate mode : Constant
Bit rate : 192 kb/s
Channel(s) : 2 channels
Sampling rate : 48.0 kHz
Frame rate : 41.667 FPS (1152 SPF)
Compression mode : Lossy
Delay relative to video : -60 ms
Stream size : 151 MiB (2%)
Language : English
Language, more info : Clean effects
Encryption : TPS-Crypt or Viaccess
Audio #3
ID : 545 (0x221)
Menu ID : 17204 (0x4334)
Format : AC-3
Format/Info : Audio Coding 3
Commercial name : Dolby Digital
Codec ID : 6
Duration : 1 h 50 min
Bit rate mode : Constant
Bit rate : 448 kb/s
Channel(s) : 6 channels
Channel layout : L R C LFE Ls Rs
Sampling rate : 48.0 kHz
Frame rate : 31.250 FPS (1536 SPF)
Bit depth : 16 bits
Compression mode : Lossy
Delay relative to video : -68 ms
Stream size : 353 MiB (4%)
Language : French
Language, more info : Clean effects
Service kind : Complete Main
Encryption : TPS-Crypt or Viaccess
[cybertorrent.ru].t56736.torrent 
Торрент: Зарегистрирован [ 2018-10-01 16:05 ] · CDA6D64F1B703FCBB6B24C57FFDBEFB888DF8B3B

Скачать .torrent

Скачать

23 KB

Статус: проверено
Скачан: 0 раз
Размер: 8,96 GB
terms.php
[Профиль] [ЛС]
Показать сообщения:    
Ответить на тему

Текущее время: 20-Фев 00:20

Часовой пояс: UTC + 3



Вы не можете начинать темы
Вы не можете отвечать на сообщения
Вы не можете редактировать свои сообщения
Вы не можете удалять свои сообщения
Вы не можете голосовать в опросах
Вы не можете прикреплять файлы к сообщениям
Вы можете скачивать файлы