Статистика раздачи
Размер:  332 MB   |    Зарегистрирован:  7 дней   |    Скачан:  0 раз

Полного источника не было: Никогда

 
   
 
 

Keeper ®

Пол:
Не указан
Стаж:
5 месяцев 4 дня
Сообщений:
495

Олег Гончаров / Любимая игрушка
Жанр: Детская музыка
Страна-производитель диска: Россия
Год издания диска: 1995
Издатель (лейбл): SoLyd Records
Номер по каталогу: SLR 0043
Страна: Россия
Аудиокодек: FLAC
Тип рипа: image+.cue
Битрейт аудио: lossless
Продолжительность: 59:52
Источник: собственный рип
Наличие сканов в содержимом раздачи: да

Треклист

01. Хоровод (2:27)
02. Камбала (2:35)
03. Спор (0:39)
04. Бабушка (2:04)
05. Приключился случай (2:30)
06. Жадина (0:30)
07. Нежадина (1:44)
08. Мама скушала варенье (0:11)
09. Дрожащая песня (1:28)
10. Ой, ты милая (1:28)
11. Бай-бай (3:42)
12. Вот (2:51)
13. Проиграли (2:35)
14. Напугал (0:33)
15. Змей Горыныч (0:29)
16. Яма (0:47)
17. Зонт (0:48)
18. Любимая игрушка (3:01)
19. Бак (0:47)
20. Варенье (2:17)
21. Мяу-вау (1:34)
22. Обида (2:35)
23. Моряк (0:37)
24. Суп (0:58)
25. Сосед (1:21)
26. Солдат и балерина (0:49)
27. Сон (3:16)
28. Белоснежка и гномы (0:55)
29. Кто видел? (1:05)
30. Лакированные туфли (3:54)
31. Хохотун-смешок (1:06)
32. Седьмой пирожок (2:02)
33. Выгоним беду (3:16)
34. Ринда рай-я (1:40)
35. Не печалься (1:18)

Лог создания рипа

Exact Audio Copy V1.0 beta 4 from 7. December 2014
EAC extraction logfile from 28. February 2015, 10:21
Олег Гончаров / Любимая игрушка
Used drive : SlimtypeDVD A DS8A8SH Adapter: 1 ID: 0
Read mode : Secure
Utilize accurate stream : Yes
Defeat audio cache : Yes
Make use of C2 pointers : No
Read offset correction : 6
Overread into Lead-In and Lead-Out : No
Fill up missing offset samples with silence : Yes
Delete leading and trailing silent blocks : No
Null samples used in CRC calculations : Yes
Used interface : Native Win32 interface for Win NT & 2000
Used output format : User Defined Encoder
Selected bitrate : 896 kBit/s
Quality : High
Add ID3 tag : No
Command line compressor : C:\Program Files (x86)\Exact Audio Copy\FLAC\FLAC.EXE
Additional command line options : -V -8 -T "Date=%year%" -T "Genre=%genre%" %source%
TOC of the extracted CD
Track | Start | Length | Start sector | End sector
---------------------------------------------------------
1 | 0:00.30 | 2:27.22 | 30 | 11076
2 | 2:27.52 | 2:34.63 | 11077 | 22689
3 | 5:02.40 | 0:38.47 | 22690 | 25586
4 | 5:41.12 | 2:03.68 | 25587 | 34879
5 | 7:45.05 | 2:30.00 | 34880 | 46129
6 | 10:15.05 | 0:30.07 | 46130 | 48386
7 | 10:45.12 | 1:44.05 | 48387 | 56191
8 | 12:29.17 | 0:11.28 | 56192 | 57044
9 | 12:40.45 | 1:27.57 | 57045 | 63626
10 | 14:08.27 | 1:27.40 | 63627 | 70191
11 | 15:35.67 | 3:41.40 | 70192 | 86806
12 | 19:17.32 | 2:50.43 | 86807 | 99599
13 | 22:08.00 | 2:35.20 | 99600 | 111244
14 | 24:43.20 | 0:33.37 | 111245 | 113756
15 | 25:16.57 | 0:28.45 | 113757 | 115901
16 | 25:45.27 | 0:47.13 | 115902 | 119439
17 | 26:32.40 | 0:47.42 | 119440 | 123006
18 | 27:20.07 | 3:01.25 | 123007 | 136606
19 | 30:21.32 | 0:47.35 | 136607 | 140166
20 | 31:08.67 | 2:16.55 | 140167 | 150421
21 | 33:25.47 | 1:34.10 | 150422 | 157481
22 | 34:59.57 | 2:34.38 | 157482 | 169069
23 | 37:34.20 | 0:37.00 | 169070 | 171844
24 | 38:11.20 | 0:58.35 | 171845 | 176229
25 | 39:09.55 | 1:20.40 | 176230 | 182269
26 | 40:30.20 | 0:49.02 | 182270 | 185946
27 | 41:19.22 | 3:16.13 | 185947 | 200659
28 | 44:35.35 | 0:55.32 | 200660 | 204816
29 | 45:30.67 | 1:05.00 | 204817 | 209691
30 | 46:35.67 | 3:53.38 | 209692 | 227204
31 | 50:29.30 | 1:06.10 | 227205 | 232164
32 | 51:35.40 | 2:02.32 | 232165 | 241346
33 | 53:37.72 | 3:16.33 | 241347 | 256079
34 | 56:54.30 | 1:39.60 | 256080 | 263564
35 | 58:34.15 | 1:17.60 | 263565 | 269399
Range status and errors
Selected range
Filename D:\Аквариум и БГ\(1995) Олег Гончаров - Любимая игрушка [SLR 0043]\Олег Гончаров - Любимая игрушка.wav
Peak level 97.4 %
Extraction speed 2.0 X
Range quality 100.0 %
Test CRC DB0DF2CD
Copy CRC DB0DF2CD
Copy OK
No errors occurred
AccurateRip summary
Track 1 not present in database
Track 2 not present in database
Track 3 not present in database
Track 4 not present in database
Track 5 not present in database
Track 6 not present in database
Track 7 not present in database
Track 8 not present in database
Track 9 not present in database
Track 10 not present in database
Track 11 not present in database
Track 12 not present in database
Track 13 not present in database
Track 14 not present in database
Track 15 not present in database
Track 16 not present in database
Track 17 not present in database
Track 18 not present in database
Track 19 not present in database
Track 20 not present in database
Track 21 not present in database
Track 22 not present in database
Track 23 not present in database
Track 24 not present in database
Track 25 not present in database
Track 26 not present in database
Track 27 not present in database
Track 28 not present in database
Track 29 not present in database
Track 30 not present in database
Track 31 not present in database
Track 32 not present in database
Track 33 not present in database
Track 34 not present in database
Track 35 not present in database
None of the tracks are present in the AccurateRip database
End of status report
---- CUETools DB Plugin V2.1.4
[CTDB TOCID: 8k7QpcMINTR.8JGhk2fZl15lz6o-] disk not present in database
Submit result: 8k7QpcMINTR.8JGhk2fZl15lz6o- has been uploaded
==== Log checksum 97C7D045572F58AD312263EA8F77C30261FDD2C3215877B819EDB73237A74E72 ====

Об исполнителе

Олег Юрьевич Гончаров (1 ноября 1961, Челябинск) — советский и российский музыкант, звукорежиссёр группы «Аквариум» с 1988 года. (https://ru.wikipedia.org/wiki/Гончаров,_Олег_Юрьевич)
Официальный сайт: http://gonchik.ru/

Состав

Музыка - Олег Гончаров, кроме 12 - Армен Григорян.
Тексты - Олег Гончаров, кроме 4, 9, 14, 16, 17, 19, 20, 23, 24, 25 - Олег Григорьев.
Бузилки, кричалки и ворчалки исполняют Лиза и Алена.
Олег Гончаров (Онно) - вокал, гитара, бас, хамуз, казу;
Ольга Гончарова - вокал 10, домра;
Владимир Пачкунов - баян;
Дмитрий Пшишляк (Ослик) - клавиши.
Борис Гребенщиков - вокал 12;
Виталий Семенов - ударные, ксилофон;
Игорь Зоточев (Симбирский) - вокал 28, балалайка, гитара 19, 22;
Андрей Вихарев (Вих) - экзотические малые ударные;
Аня (Понча) - вздохи, ахи;
Сергей Чиграков (Чиж) - гитара 7.
[cybertorrent.ru].t56736.torrent 
Торрент: Зарегистрирован [ 2018-07-11 20:18 ] · CFDC017E3F55730032EB371AE15BE933DCEE8F71

Скачать .torrent

Скачать

14 KB

Статус: проверено
Скачан: 0 раз
Размер: 332 MB
Профиль [ЛС]
Показать сообщения:    

Текущее время: 19-Июл 15:00

Часовой пояс: UTC ± 0



Вы не можете начинать темы
Вы не можете отвечать на сообщения
Вы не можете редактировать свои сообщения
Вы не можете удалять свои сообщения
Вы не можете голосовать в опросах
Вы не можете прикреплять файлы к сообщениям
Вы можете скачивать файлы