BitTorrent клиенты



Papa Roach • Rockpalast • Summer Breeze Festival [2018, Alternative Rock, Nu Metal, HDTV, 720p]

Ответить на тему
Статистика раздачи
Размер:  5,27 GB   |    Зарегистрирован:  4 месяца 18 дней   |    Скачан:  0 раз

Полного источника не было: Никогда

 
   
 
 
Автор Сообщение

craft ®

Пол: Не указан

Стаж: 1 год

Сообщений: 727

Создавать темы 01-Окт-2018 16:03

[Цитировать]





Жанр: Alternative Rock, Nu Metal
Продолжительность: 01:21:44
Год выпуска: 2018
Качество: HDTV
Разрешение видео/развертка: 720p
Контейнер: TS
Видео кодек: H.264
Аудио кодек: AC3
Видео: MPEG4 Video (H264) 1280x720 50fps 8 317 kb/s
Аудио: Dolby AC3 48000Hz stereo 448kbps

Треклист

01. Crooked Teeth
02. To Be Loved
03. Getting Away With Murder
04. Between Angels and Insects
05. Face Everything and Rise
06. Gravity
07. Periscope
08. Broken Home (with Eminem's "Lose Yourself" intro)
09. My Medication
10. Help
11. Traumatic
12. Song 2 (Blur cover)
13. Forever (with snippet of Linkin Park's… more )
14. Falling Apart
15. Born for Greatness
Encore:
16. Scars
17. None of the Above
18. Last Resort
19. Interview

Отчёт MediaInfo / BDInfo

General
ID : 1 (0x1)
Complete name : E:\Papa Roach - Summer Breeze Festival 2018.ts
Format : MPEG-TS
File size : 5.27 GiB
Duration : 1 h 21 min
Overall bit rate mode : Variable
Overall bit rate : 9 226 kb/s
Video
ID : 5501 (0x157D)
Menu ID : 1 (0x1)
Format : AVC
Format/Info : Advanced Video Codec
Format profile : High@L4
Format settings : CABAC / 4 Ref Frames
Format settings, CABAC : Yes
Format settings, ReFrames : 4 frames
Codec ID : 27
Duration : 1 h 21 min
Bit rate : 8 317 kb/s
Width : 1 280 pixels
Height : 720 pixels
Display aspect ratio : 16:9
Frame rate : 50.000 FPS
Color space : YUV
Chroma subsampling : 4:2:0
Bit depth : 8 bits
Scan type : Progressive
Bits/(Pixel*Frame) : 0.180
Stream size : 4.75 GiB (90%)
Audio
ID : 5506 (0x1582)
Menu ID : 1 (0x1)
Format : AC-3
Format/Info : Audio Coding 3
Commercial name : Dolby Digital
Codec ID : 6
Duration : 1 h 21 min
Bit rate mode : Constant
Bit rate : 448 kb/s
Channel(s) : 2 channels
Channel layout : L R
Sampling rate : 48.0 kHz
Frame rate : 31.250 FPS (1536 SPF)
Bit depth : 16 bits
Compression mode : Lossy
Stream size : 262 MiB (5%)
Language : German
Service kind : Complete Main
[cybertorrent.ru].t56740.torrent 
Торрент: Зарегистрирован [ 2018-10-01 16:05 ] · B196E0C50306D169462D03DD19F9290A854924DD

Скачать .torrent

Скачать

14 KB

Статус: проверено
Скачан: 0 раз
Размер: 5,27 GB
terms.php
[Профиль] [ЛС]
Показать сообщения:    
Ответить на тему

Текущее время: 20-Фев 00:55

Часовой пояс: UTC + 3



Вы не можете начинать темы
Вы не можете отвечать на сообщения
Вы не можете редактировать свои сообщения
Вы не можете удалять свои сообщения
Вы не можете голосовать в опросах
Вы не можете прикреплять файлы к сообщениям
Вы можете скачивать файлы