Статистика раздачи
Размер:  13,73 GB   |    Зарегистрирован:  2 месяца 7 дней   |    Скачан:  0 раз

Полного источника не было: Никогда

 
   
 
 

zaja ®

Пол:
Не указан
Стаж:
7 месяцев 4 дня
Сообщений:
56


Бэтмен:Убийственная шутка / Batman: The Killing Joke
«The madness begins» -Страна: США.
Жанр: Мультфильм, боевик, триллер, криминал.
Продолжительность: 01:16:39
Год выпуска: 2016.
Перевод: Профессиональный (дублированный) SDI Media;
Любительский (многоголосый закадровый) ZM-Show;
Любительский (многоголосый закадровый) Saint Sound;
Любительский (многоголосый закадровый) GoASound;
Любительский (одноголосый закадровый) Solod
Русские субтитры: Есть.
Режиссёр: Sam Liu / Сэм Лью.
Роли озвучивали: Кевин Конрой, Марк Хэмилл, Тара Стронг, Рэй Уайз, Джон Ди Маджио, Робин Аткин Даунс, Брайан Джордж, Джон Пол Карлиак, Эндрю Кисино, Нолан Норт.--Описание: Бэтмен появляется в клинике Аркхем, где выясняет, что Джокер сумел бежать из-под охраны. Этот опасный пациент был под наблюдением, но теперь его функции развлекать лечебницу переданы другому. Тот в роли клоуна, не отдающего себе отчета в последствиях происходящего. Джокер на свободе и намерен показать окружающим, на что способен. Ошибались те, кто считал его умалишенным. Мир вокруг сошел с ума, а у Джокера есть свои планы и способы их реализации. Парк аттракционов, давно не функционирующий, куплен беглецом из клиники за копейки. Это первый шаг на пути к мечте. Джеймс Гордон становится помощником Джокера. Почему именно он? Гордон олицетворяет собой честь и мораль в Готэме, прогнившем насквозь…--

Роли озвучивали :

ZM-SHOW

Перевод на русский: Агата Клинцова.
Закадровые голоса: Михаил Тихонов, Владислав Данилов, Дмитрий Лунев, Иван Мтрск, Кирилл Лавров, Анастасия Лаглер.

Saint Sound

Закадровые голоса: Маргарита Корш, Андрей Стакионис, Александр Луговский, Евгений Леонов, Никита Аитов, Игорь Хрусталев, Полина Касаткина, Макс Фривинг и Алексей Щегорский.

GoASound

Работа со звуком: Gink Freud.
Закадровые голоса: Wolverrine, Сергей Павлов, Reina, Кирамбет.
Релиз: -Благодарности:
Спасибо BenderBEST за покупку дублированной дорожки;
Спасибо eugeen.solod за любезно предоставленный чистый голос Solod;
Спасибо dartrody и ZM-SHOW за любезно предоставленные чистые голоса;
Спасибо Saint Sound за любезно предоставленные чистые голоса;
Спасибо Александр Пейн за любезно предоставленные чистые голоса GoASound,
Спасибо xfiles за помощь и советы по кодированию аудио.-Качество: BDRemux 1080p
Формат: MKV
Видео кодек: AVC
Аудио кодек: AC3, DTS MA
Видео: 1920x1080 , 14933 kbps / 23.976 fps / 16:9 / High Profile 4.1
Аудио 1: AC3, 3/2 (L,C,R,SL,SR)+LFE ch, 448 kbps Дубляж SDI Media
Аудио 2: DTS-HD Master Audio / 5.1 / 48 kHz / 2054 kbps / 16-bit (DTS Core: 5.1 / 48 kHz / 1509 kbps / 16-bit) ZM-Show
Аудио 3: DTS-HD Master Audio / 5.1 / 48 kHz / 2060 kbps / 16-bit (DTS Core: 5.1 / 48 kHz / 1509 kbps / 16-bit) Saint Sound
Аудио 4: DTS-HD Master Audio / 5.1 / 48 kHz / 2047 kbps / 16-bit (DTS Core: 5.1 / 48 kHz / 1509 kbps / 16-bit) GoASound
Аудио 5: DTS-HD Master Audio / 5.1 / 48 kHz / 2048 kbps / 16-bit (DTS Core: 5.1 / 48 kHz / 1509 kbps / 16-bit) Solod
Аудио 6: DTS-HD Master Audio / 5.1 / 48 kHz / 2044 kbps / 24-bit (DTS Core: 5.1 / 48 kHz / 1509 kbps / 24-bit) English
Субтитры: Русский, English SDH.
Навигация по главам: 8 глав (не именных)

MInfo

General
Unique ID : 139919775453580340171098546968282039851 (0x6943918B8FE6ABE4E6F795A39670862B)
Complete name : G:\Bobropandavar\Batman The Killing Joke (2016) BDRemux 1080p Bobropandavar.mkv
Format : Matroska
Format version : Version 4 / Version 2
File size : 13.7 GiB
Duration : 1 h 16 min
Overall bit rate mode : Variable
Overall bit rate : 25.7 Mb/s
Encoded date : UTC 2018-06-22 15:15:11
Writing application : mkvmerge v24.0.0 ('Beyond The Pale') 64-bit
Writing library : libebml v1.3.6 + libmatroska v1.4.9
Video
ID : 1
Format : AVC
Format/Info : Advanced Video Codec
Format profile : High@L4.1
Format settings : CABAC / 4 Ref Frames
Format settings, CABAC : Yes
Format settings, ReFrames : 4 frames
Codec ID : V_MPEG4/ISO/AVC
Duration : 1 h 16 min
Bit rate mode : Variable
Bit rate : 14.9 Mb/s
Maximum bit rate : 35.0 Mb/s
Width : 1 920 pixels
Height : 1 080 pixels
Display aspect ratio : 16:9
Frame rate mode : Constant
Frame rate : 23.976 (24000/1001) FPS
Color space : YUV
Chroma subsampling : 4:2:0
Bit depth : 8 bits
Scan type : Progressive
Bits/(Pixel*Frame) : 0.300
Stream size : 8.00 GiB (58%)
Language : English
Default : Yes
Forced : No
Audio #1
ID : 2
Format : AC-3
Format/Info : Audio Coding 3
Codec ID : A_AC3
Duration : 1 h 16 min
Bit rate mode : Constant
Bit rate : 448 kb/s
Channel(s) : 6 channels
Channel positions : Front: L C R, Side: L R, LFE
Sampling rate : 48.0 kHz
Frame rate : 31.250 FPS (1536 SPF)
Bit depth : 16 bits
Compression mode : Lossy
Stream size : 246 MiB (2%)
Title : Дубляж
Language : Russian
Service kind : Complete Main
Default : Yes
Forced : No
Audio #2
ID : 3
Format : DTS
Format/Info : Digital Theater Systems
Format profile : MA / Core
Codec ID : A_DTS
Duration : 1 h 16 min
Bit rate mode : Variable / Constant
Bit rate : 2 048 kb/s / 1 509 kb/s
Channel(s) : 6 channels
Channel positions : Front: L C R, Side: L R, LFE
Sampling rate : 48.0 kHz
Frame rate : 93.750 FPS (512 SPF)
Bit depth : 16 bits
Compression mode : Lossless / Lossy
Stream size : 1.10 GiB (8%)
Title : ZM-SHOW
Language : Russian
Default : No
Forced : No
Audio #3
ID : 4
Format : DTS
Format/Info : Digital Theater Systems
Format profile : MA / Core
Codec ID : A_DTS
Duration : 1 h 16 min
Bit rate mode : Variable / Constant
Bit rate : 2 048 kb/s / 1 509 kb/s
Channel(s) : 6 channels
Channel positions : Front: L C R, Side: L R, LFE
Sampling rate : 48.0 kHz
Frame rate : 93.750 FPS (512 SPF)
Bit depth : 16 bits
Compression mode : Lossless / Lossy
Stream size : 1.10 GiB (8%)
Title : Saint Sound
Language : Russian
Default : No
Forced : No
Audio #4
ID : 5
Format : DTS
Format/Info : Digital Theater Systems
Format profile : MA / Core
Codec ID : A_DTS
Duration : 1 h 16 min
Bit rate mode : Variable / Constant
Bit rate : 2 048 kb/s / 1 509 kb/s
Channel(s) : 6 channels
Channel positions : Front: L C R, Side: L R, LFE
Sampling rate : 48.0 kHz
Frame rate : 93.750 FPS (512 SPF)
Bit depth : 16 bits
Compression mode : Lossless / Lossy
Stream size : 1.09 GiB (8%)
Title : GoASound
Language : Russian
Default : No
Forced : No
Audio #5
ID : 6
Format : DTS
Format/Info : Digital Theater Systems
Format profile : MA / Core
Codec ID : A_DTS
Duration : 1 h 16 min
Bit rate mode : Variable / Constant
Bit rate : 2 048 kb/s / 1 509 kb/s
Channel(s) : 6 channels
Channel positions : Front: L C R, Side: L R, LFE
Sampling rate : 48.0 kHz
Frame rate : 93.750 FPS (512 SPF)
Bit depth : 16 bits
Compression mode : Lossless / Lossy
Stream size : 1.11 GiB (8%)
Title : Solod
Language : Russian
Default : No
Forced : No
Audio #6
ID : 7
Format : DTS
Format/Info : Digital Theater Systems
Format profile : MA / Core
Codec ID : A_DTS
Duration : 1 h 16 min
Bit rate mode : Variable / Constant
Bit rate : 2 048 kb/s / 1 509 kb/s
Channel(s) : 6 channels
Channel positions : Front: L C R, Side: L R, LFE
Sampling rate : 48.0 kHz
Frame rate : 93.750 FPS (512 SPF)
Bit depth : 24 bits
Compression mode : Lossless / Lossy
Stream size : 1.09 GiB (8%)
Title : English
Language : English
Default : No
Forced : No
Text #1
ID : 8
Format : UTF-8
Codec ID : S_TEXT/UTF8
Codec ID/Info : UTF-8 Plain Text
Duration : 1 h 13 min
Bit rate : 100 b/s
Count of elements : 997
Stream size : 53.8 KiB (0%)
Title : Русский
Language : Russian
Default : No
Forced : No
Text #2
ID : 9
Format : UTF-8
Codec ID : S_TEXT/UTF8
Codec ID/Info : UTF-8 Plain Text
Duration : 1 h 16 min
Bit rate : 64 b/s
Count of elements : 1157
Stream size : 36.2 KiB (0%)
Title : English SDH
Language : English
Default : No
Forced : No
Menu
00:00:00.000 : :
00:10:06.731 : :
00:20:30.646 : :
00:30:08.264 : :
00:41:23.647 : :
00:51:27.334 : :
01:02:21.520 : :
01:11:51.890 : :

Скриншоты


-МОИ РАЗДАЧИ-НЕ ЗАБЫВАЕМ БЛАГОДАРИТЬ НАЖАТИЕМ КНОПОЧКИ "СПАСИБО"
[cybertorrent.ru].t56742.torrent 
Торрент: Зарегистрирован [ 2018-07-11 20:18 ] · 03943246D7972F986A48AADD386B457DB26058D0

Скачать .torrent

Скачать

35 KB

Статус: проверено
Скачан: 0 раз
Размер: 13,73 GB
Профиль [ЛС]
Показать сообщения:    

Текущее время: 19-Сен 17:34

Часовой пояс: UTC ± 0



Вы не можете начинать темы
Вы не можете отвечать на сообщения
Вы не можете редактировать свои сообщения
Вы не можете удалять свои сообщения
Вы не можете голосовать в опросах
Вы не можете прикреплять файлы к сообщениям
Вы можете скачивать файлы
Torrents24.ru открытый BitTorrent Torrents24.pl открытый BitTorrent CyberTorrent.ru открытый BitTorrent BtList.ru рейтинг BitTorrent трекеров Яндекс.Метрика