Статистика раздачи
Размер:  288 MB   |    Зарегистрирован:  4 дня   |    Скачан:  0 раз

Полного источника не было: Никогда

 
   
 
 

Keeper ®

Пол:
Не указан
Стаж:
5 месяцев
Сообщений:
495

Олег Гончаров / В гости к нам!
Жанр: Детская музыка
Страна-производитель диска: Германия
Год издания диска: 1997
Издатель (лейбл): Триарий
Номер по каталогу: AM 077
Страна: Россия
Аудиокодек: FLAC
Тип рипа: image+.cue
Битрейт аудио: lossless
Продолжительность: 48:40
Источник: собственный рип
Наличие сканов в содержимом раздачи: да

Треклист

01. Онно - маленький охотник (2:08)
02. Кисонька-1 (2:01)
03. Кто кого боится (0:50)
04. Шутка (1:59)
05. Жук (1:08)
06. Упрямые козлы (1:04)
07. Мурка и колбаса (0:52)
08. Весёлая мышка (1:35)
09. Ослик (0:38)
10. А ну-ка, поймай (2:08)
11. Кисонька-2 (1:50)
12. Паровоз (2:47)
13. Собачка (0:56)
14. Мячик (0:46)
15. Грустилки (1:02)
16. Дневная колыбельная (2:48)
17. Песенка про манную кашу (1:50)
18. Розовый медок (1:10)
19. Бука-бум, оп майда (2:28)
20. Лю-лю-лю (2:11)
21. Топ-топ-топ (2:03)
22. Алёнка в пелёнке (2:43)
23. Ё-моё (3:09)
24. Ложка (0:28)
25. Три медведя (2:38)
26. Баба-яга (2:21)
27. Танец ОННО (3:07)

Лог создания рипа

Exact Audio Copy V1.0 beta 4 from 7. December 2014
EAC extraction logfile from 28. February 2015, 17:03
Олег Гончаров / В гости к нам!
Used drive : SlimtypeDVD A DS8A8SH Adapter: 1 ID: 0
Read mode : Secure
Utilize accurate stream : Yes
Defeat audio cache : Yes
Make use of C2 pointers : No
Read offset correction : 6
Overread into Lead-In and Lead-Out : No
Fill up missing offset samples with silence : Yes
Delete leading and trailing silent blocks : No
Null samples used in CRC calculations : Yes
Used interface : Native Win32 interface for Win NT & 2000
Used output format : User Defined Encoder
Selected bitrate : 896 kBit/s
Quality : High
Add ID3 tag : No
Command line compressor : C:\Program Files (x86)\Exact Audio Copy\FLAC\FLAC.EXE
Additional command line options : -V -8 -T "Date=%year%" -T "Genre=%genre%" %source%
TOC of the extracted CD
Track | Start | Length | Start sector | End sector
---------------------------------------------------------
1 | 0:00.32 | 2:07.50 | 32 | 9606
2 | 2:08.07 | 2:01.00 | 9607 | 18681
3 | 4:09.07 | 0:50.00 | 18682 | 22431
4 | 4:59.07 | 1:59.00 | 22432 | 31356
5 | 6:58.07 | 1:08.00 | 31357 | 36456
6 | 8:06.07 | 1:04.00 | 36457 | 41256
7 | 9:10.07 | 0:52.00 | 41257 | 45156
8 | 10:02.07 | 1:35.00 | 45157 | 52281
9 | 11:37.07 | 0:38.00 | 52282 | 55131
10 | 12:15.07 | 2:08.00 | 55132 | 64731
11 | 14:23.07 | 1:50.00 | 64732 | 72981
12 | 16:13.07 | 2:47.00 | 72982 | 85506
13 | 19:00.07 | 0:56.00 | 85507 | 89706
14 | 19:56.07 | 0:46.00 | 89707 | 93156
15 | 20:42.07 | 1:02.00 | 93157 | 97806
16 | 21:44.07 | 2:48.00 | 97807 | 110406
17 | 24:32.07 | 1:50.00 | 110407 | 118656
18 | 26:22.07 | 1:10.00 | 118657 | 123906
19 | 27:32.07 | 2:28.00 | 123907 | 135006
20 | 30:00.07 | 2:11.00 | 135007 | 144831
21 | 32:11.07 | 2:03.00 | 144832 | 154056
22 | 34:14.07 | 2:43.00 | 154057 | 166281
23 | 36:57.07 | 3:09.00 | 166282 | 180456
24 | 40:06.07 | 0:28.00 | 180457 | 182556
25 | 40:34.07 | 2:38.00 | 182557 | 194406
26 | 43:12.07 | 2:21.00 | 194407 | 204981
27 | 45:33.07 | 3:07.25 | 204982 | 219031
Range status and errors
Selected range
Filename D:\Аквариум и БГ\(1997) Олег Гончаров - В гости к нам! [AM 077]\Олег Гончаров - В гости к нам!.wav
Peak level 89.7 %
Extraction speed 1.8 X
Range quality 100.0 %
Test CRC 9EF96E17
Copy CRC 9EF96E17
Copy OK
No errors occurred
AccurateRip summary
Track 1 accurately ripped (confidence 2) [896D7668] (AR v1)
Track 2 accurately ripped (confidence 2) [50B8D4B3] (AR v1)
Track 3 accurately ripped (confidence 2) [6EC5B277] (AR v1)
Track 4 accurately ripped (confidence 2) [BF06DD25] (AR v1)
Track 5 accurately ripped (confidence 2) [6B675AD6] (AR v1)
Track 6 accurately ripped (confidence 2) [E8F7EE42] (AR v1)
Track 7 accurately ripped (confidence 2) [9E1B92D9] (AR v1)
Track 8 accurately ripped (confidence 2) [CECAB66D] (AR v1)
Track 9 accurately ripped (confidence 2) [A4FBBAF1] (AR v1)
Track 10 accurately ripped (confidence 2) [B9C886C0] (AR v1)
Track 11 accurately ripped (confidence 2) [E8F1ACB4] (AR v1)
Track 12 accurately ripped (confidence 2) [51937CEC] (AR v1)
Track 13 accurately ripped (confidence 2) [0D18F183] (AR v1)
Track 14 accurately ripped (confidence 2) [6EB698A1] (AR v1)
Track 15 accurately ripped (confidence 2) [CCEF931F] (AR v1)
Track 16 accurately ripped (confidence 2) [94D3F11A] (AR v1)
Track 17 accurately ripped (confidence 2) [15C5416C] (AR v1)
Track 18 accurately ripped (confidence 2) [4670B30D] (AR v1)
Track 19 accurately ripped (confidence 2) [652E7827] (AR v1)
Track 20 accurately ripped (confidence 2) [1B6BC77D] (AR v1)
Track 21 accurately ripped (confidence 2) [7F7EBA4F] (AR v1)
Track 22 accurately ripped (confidence 2) [161C66A3] (AR v1)
Track 23 accurately ripped (confidence 2) [F1ADED26] (AR v1)
Track 24 accurately ripped (confidence 2) [7A8CB467] (AR v1)
Track 25 accurately ripped (confidence 2) [1336C700] (AR v1)
Track 26 accurately ripped (confidence 2) [0B15CA86] (AR v1)
Track 27 accurately ripped (confidence 2) [442C0853] (AR v1)
All tracks accurately ripped
End of status report
---- CUETools DB Plugin V2.1.4
[CTDB TOCID: JzNYPoksYGRWfUVw_KBXahJ.BxE-] disk not present in database
Submit result: JzNYPoksYGRWfUVw_KBXahJ.BxE- has been uploaded
==== Log checksum 48B4CAB52BAACF931BB04788C6044919954FC514B461B9C7B0850A5DB679F2F3 ====

Об исполнителе

Олег Юрьевич Гончаров (1 ноября 1961, Челябинск) — советский и российский музыкант, звукорежиссёр группы «Аквариум» с 1988 года. (https://ru.wikipedia.org/wiki/Гончаров,_Олег_Юрьевич)
Официальный сайт: http://gonchik.ru/

Состав

Олег Гончаров (ОННО) — вокал, гитара, бас, клавиши, хамуз, глюки
Вова Ханутин (Панк) — ударные
Андрей Вихарев (Вих) — ударные (25), табла (22)
Дима Борисов — перкуссия (21, 23)
Сергей Щураков — аккордеон (9, 10, 16)
Оля Гончарова — домра, мандолина
Борис Гребенщиков (БГ) — скрежет по гитаре (14)
Игорь Зоточев (Симбирский) — балалайка.
Подпевки, выкрики, художественный шум — Гоша, Лиза, Вобан (Челябинский), Алёнка, Оля, Митя (Ш.Д.)
Стишок — Лиза
муз. и сл. — Олег Гончаров, кроме указанных
Запись 1990–93 (ДК Связи) на студии Аквариума, кроме:
9: 1994 г — студия TKK (Дворец пионеров)
1–3, 12, 15, 19, 21–27: 1994–95 гг. — студия Аквариум (Пушкинская, 10)
Ремастеринг — Георгий Руденко.
[cybertorrent.ru].t56753.torrent 
Торрент: Зарегистрирован [ 2018-07-11 20:18 ] · 7E74FACC009FB9C22FDAE6E4D67978B51381182E

Скачать .torrent

Скачать

12 KB

Статус: проверено
Скачан: 0 раз
Размер: 288 MB
Профиль [ЛС]
Показать сообщения:    

Текущее время: 16-Июл 02:56

Часовой пояс: UTC ± 0



Вы не можете начинать темы
Вы не можете отвечать на сообщения
Вы не можете редактировать свои сообщения
Вы не можете удалять свои сообщения
Вы не можете голосовать в опросах
Вы не можете прикреплять файлы к сообщениям
Вы можете скачивать файлы