BitTorrent клиенты



(Contemporary Jazz, Fusion) [CD] Donny McCaslin - Fast Future - 2015, FLAC (tracks+.cue), lossless

Ответить на тему
Статистика раздачи
Размер:  352 MB   |    Зарегистрирован:  4 месяца 22 дня   |    Скачан:  0 раз

Полного источника не было: Никогда

 
   
 
 
Автор Сообщение

99.99 ®

Пол: Не указан

Стаж: 11 месяцев 23 дня

Сообщений: 496

Создавать темы 01-Окт-2018 16:02

[Цитировать]

Donny McCaslin - Fast Future
Жанр: Contemporary Jazz, Fusion
Носитель: CD
Страна-производитель диска (релиза): США
Год издания: 2015
Издатель (лейбл): Greenleaf Music
Номер по каталогу: GRE-CD-1041
Аудиокодек: FLAC (*.flac)
Тип рипа: tracks+.cue
Битрейт аудио: lossless
Продолжительность: 55:36
Источник (релизер): omarufo
Наличие сканов в содержимом раздачи: сетевые
Треклист:
01. Fast Future (McCaslin-Binney) - 5:54
02. No Eyes (Wiesenfeld) - 5:56
03. Love and Living (McCaslin) - 9:30
04. Midnight Light (McCaslin) - 6:39
05. 54 Cymru Beats (James) - 2:16
06. Love What Is Mortal (McCaslin) - 5:57
07. Underground City (McCaslin-Binney) - 6:59
08. This Side of Sunrise (Binney) - 4:32
09. Blur (McCaslin) - 1:28
10. Squeeze Thru (McCaslin) - 6:25
Состав:
Donny McCaslin - tenor saxophone
Jason Lindner - electric & acoustic pianos, synthesizers
Tim Lefebvre - electric bass
Mark Guiliana - drums
David Binney - vocals, additional synthesizers
Nina Geiger - vocals
Nate Wood - guitar
Jana Dagdagan - spoken word
Recorded at Systems Two, Brooklyn, NY in June 2014.

Лог создания рипа

X Lossless Decoder version 20151214 (149.1)
XLD extraction logfile from 2016-07-22 22:10:34 +0200
Donny McCaslin / Fast Future
Used drive : MATSHITA DVD-R UJ-868 (revision KB19)
Media type : Pressed CD
Ripper mode : XLD Secure Ripper
Disable audio cache : OK for the drive with a cache less than 1375KiB
Make use of C2 pointers : NO
Read offset correction : 102
Max retry count : 20
Gap status : Analyzed, Appended (except HTOA)
TOC of the extracted CD
Track | Start | Length | Start sector | End sector
---------------------------------------------------------
1 | 00:00:00 | 05:54:01 | 0 | 26550
2 | 05:54:01 | 05:55:57 | 26551 | 53232
3 | 11:49:58 | 09:30:08 | 53233 | 95990
4 | 21:19:66 | 06:38:41 | 95991 | 125881
5 | 27:58:32 | 02:16:23 | 125882 | 136104
6 | 30:14:55 | 05:56:42 | 136105 | 162846
7 | 36:11:22 | 06:58:63 | 162847 | 194259
8 | 43:10:10 | 04:32:11 | 194260 | 214670
9 | 47:42:21 | 01:28:16 | 214671 | 221286
10 | 49:10:37 | 06:24:73 | 221287 | 250159
AccurateRip Summary (DiscID: 0016991b-00b1834c-890d070a)
Track 01 : OK (v2, confidence 4/4)
Track 02 : OK (v2, confidence 4/4)
Track 03 : OK (v2, confidence 4/4)
Track 04 : OK (v2, confidence 4/4)
Track 05 : OK (v2, confidence 4/4)
Track 06 : OK (v2, confidence 4/4)
Track 07 : OK (v2, confidence 4/4)
Track 08 : OK (v2, confidence 4/4)
Track 09 : OK (v2, confidence 4/4)
Track 10 : OK (v2, confidence 4/4)
->All tracks accurately ripped.
All Tracks
Album gain : -6.94 dB
Peak : 0.987091
Statistics
Read error : 0
Jitter error (maybe fixed) : 0
Retry sector count : 0
Damaged sector count : 0
Track 01
Filename : /Users/Lily/[FLAC]/Donny McCaslin - 2015 - Fast Future - FLAC/01 - Fast Future.flac
Pre-gap length : 00:02:00
Track gain : -7.28 dB
Peak : 0.987030
CRC32 hash (test run) : B1D7166C
CRC32 hash : B1D7166C
CRC32 hash (skip zero) : 52CB6E3E
AccurateRip v1 signature : F15E0E70
AccurateRip v2 signature : A638A98E
->Accurately ripped (v2, confidence 4/4)
Statistics
Read error : 0
Jitter error (maybe fixed) : 0
Retry sector count : 0
Damaged sector count : 0
Track 02
Filename : /Users/Lily/[FLAC]/Donny McCaslin - 2015 - Fast Future - FLAC/02 - No Eyes.flac
Track gain : -6.93 dB
Peak : 0.986938
CRC32 hash (test run) : 76D99E6A
CRC32 hash : 76D99E6A
CRC32 hash (skip zero) : B4492658
AccurateRip v1 signature : C1578824
AccurateRip v2 signature : E1A7FD62
->Accurately ripped (v2, confidence 4/4)
Statistics
Read error : 0
Jitter error (maybe fixed) : 0
Retry sector count : 0
Damaged sector count : 0
Track 03
Filename : /Users/Lily/[FLAC]/Donny McCaslin - 2015 - Fast Future - FLAC/03 - Love and Living.flac
Track gain : -7.67 dB
Peak : 0.987091
CRC32 hash (test run) : F974E356
CRC32 hash : F974E356
CRC32 hash (skip zero) : 59F40B8F
AccurateRip v1 signature : 28E603D2
AccurateRip v2 signature : BDF9CE7C
->Accurately ripped (v2, confidence 4/4)
Statistics
Read error : 0
Jitter error (maybe fixed) : 0
Retry sector count : 0
Damaged sector count : 0
Track 04
Filename : /Users/Lily/[FLAC]/Donny McCaslin - 2015 - Fast Future - FLAC/04 - Midnight Light.flac
Track gain : -6.23 dB
Peak : 0.986938
CRC32 hash (test run) : 3F416EB5
CRC32 hash : 3F416EB5
CRC32 hash (skip zero) : DF2F2F85
AccurateRip v1 signature : 1BE2EA59
AccurateRip v2 signature : 556A3A74
->Accurately ripped (v2, confidence 4/4)
Statistics
Read error : 0
Jitter error (maybe fixed) : 0
Retry sector count : 0
Damaged sector count : 0
Track 05
Filename : /Users/Lily/[FLAC]/Donny McCaslin - 2015 - Fast Future - FLAC/05 - 54 Cymru Beats.flac
Track gain : -5.56 dB
Peak : 0.987030
CRC32 hash (test run) : 4D07A643
CRC32 hash : 4D07A643
CRC32 hash (skip zero) : 62440272
AccurateRip v1 signature : A89E0F7E
AccurateRip v2 signature : EDB1197D
->Accurately ripped (v2, confidence 4/4)
Statistics
Read error : 0
Jitter error (maybe fixed) : 0
Retry sector count : 0
Damaged sector count : 0
Track 06
Filename : /Users/Lily/[FLAC]/Donny McCaslin - 2015 - Fast Future - FLAC/06 - Love What is Mortal.flac
Track gain : -6.94 dB
Peak : 0.986969
CRC32 hash (test run) : 931108E9
CRC32 hash : 931108E9
CRC32 hash (skip zero) : B63FA796
AccurateRip v1 signature : B8F5B8AB
AccurateRip v2 signature : C61D91F1
->Accurately ripped (v2, confidence 4/4)
Statistics
Read error : 0
Jitter error (maybe fixed) : 0
Retry sector count : 0
Damaged sector count : 0
Track 07
Filename : /Users/Lily/[FLAC]/Donny McCaslin - 2015 - Fast Future - FLAC/07 - Underground City.flac
Track gain : -6.69 dB
Peak : 0.987000
CRC32 hash (test run) : B7FDAED1
CRC32 hash : B7FDAED1
CRC32 hash (skip zero) : 81E8A602
AccurateRip v1 signature : C9695ACC
AccurateRip v2 signature : 177E7B41
->Accurately ripped (v2, confidence 4/4)
Statistics
Read error : 0
Jitter error (maybe fixed) : 0
Retry sector count : 0
Damaged sector count : 0
Track 08
Filename : /Users/Lily/[FLAC]/Donny McCaslin - 2015 - Fast Future - FLAC/08 - This Side of Sunrise.flac
Track gain : -6.50 dB
Peak : 0.986969
CRC32 hash (test run) : D7683F3D
CRC32 hash : D7683F3D
CRC32 hash (skip zero) : A4502A57
AccurateRip v1 signature : 7B079C38
AccurateRip v2 signature : 05FB2EF4
->Accurately ripped (v2, confidence 4/4)
Statistics
Read error : 0
Jitter error (maybe fixed) : 0
Retry sector count : 0
Damaged sector count : 0
Track 09
Filename : /Users/Lily/[FLAC]/Donny McCaslin - 2015 - Fast Future - FLAC/09 - Blur.flac
Track gain : -6.23 dB
Peak : 0.986969
CRC32 hash (test run) : 3193A505
CRC32 hash : 3193A505
CRC32 hash (skip zero) : 4B73C9DD
AccurateRip v1 signature : F1087D13
AccurateRip v2 signature : 4BAD141F
->Accurately ripped (v2, confidence 4/4)
Statistics
Read error : 0
Jitter error (maybe fixed) : 0
Retry sector count : 0
Damaged sector count : 0
Track 10
Filename : /Users/Lily/[FLAC]/Donny McCaslin - 2015 - Fast Future - FLAC/10 - Squeeze Through.flac
Track gain : -6.88 dB
Peak : 0.987000
CRC32 hash (test run) : 04FED151
CRC32 hash : 04FED151
CRC32 hash (skip zero) : F610BE6C
AccurateRip v1 signature : 223D8548
AccurateRip v2 signature : 3B7DDDC4
->Accurately ripped (v2, confidence 4/4)
Statistics
Read error : 0
Jitter error (maybe fixed) : 0
Retry sector count : 0
Damaged sector count : 0
No errors occurred
End of status report
-----BEGIN XLD SIGNATURE-----
7Fbiy64H3mex4Khpki1IpM5fPcE_mUe6AVmYWVCR3mHUCf6lK.PqDikaCXYPo4rKrcoNa.Tn50p1cV9ju4S1BTeGCiT7b6DIsGTW9ga
-----END XLD SIGNATURE-----

Содержание индексной карты (.CUE)

TITLE "Fast Future"
PERFORMER "Donny McCaslin"
REM GENRE "Jazz"
REM DATE "2015"
REM DISCID 890D070A
REM REPLAYGAIN_ALBUM_GAIN -6.94 dB
REM REPLAYGAIN_ALBUM_PEAK 0.987091
FILE "01 - Fast Future.flac" WAVE
TRACK 01 AUDIO
TITLE "Fast Future"
ISRC USAS91441001
REM REPLAYGAIN_TRACK_GAIN -7.28 dB
REM REPLAYGAIN_TRACK_PEAK 0.987030
INDEX 01 00:00:00
FILE "02 - No Eyes.flac" WAVE
TRACK 02 AUDIO
TITLE "No Eyes"
ISRC USAS91441002
REM REPLAYGAIN_TRACK_GAIN -6.93 dB
REM REPLAYGAIN_TRACK_PEAK 0.986938
INDEX 01 00:00:00
FILE "03 - Love and Living.flac" WAVE
TRACK 03 AUDIO
TITLE "Love and Living"
ISRC USAS91441003
REM REPLAYGAIN_TRACK_GAIN -7.67 dB
REM REPLAYGAIN_TRACK_PEAK 0.987091
INDEX 01 00:00:00
FILE "04 - Midnight Light.flac" WAVE
TRACK 04 AUDIO
TITLE "Midnight Light"
ISRC USAS91441004
REM REPLAYGAIN_TRACK_GAIN -6.23 dB
REM REPLAYGAIN_TRACK_PEAK 0.986938
INDEX 01 00:00:00
FILE "05 - 54 Cymru Beats.flac" WAVE
TRACK 05 AUDIO
TITLE "54 Cymru Beats"
ISRC USAS91441005
REM REPLAYGAIN_TRACK_GAIN -5.56 dB
REM REPLAYGAIN_TRACK_PEAK 0.987030
INDEX 01 00:00:00
FILE "06 - Love What Is Mortal.flac" WAVE
TRACK 06 AUDIO
TITLE "Love What Is Mortal"
ISRC USAS91441006
REM REPLAYGAIN_TRACK_GAIN -6.94 dB
REM REPLAYGAIN_TRACK_PEAK 0.986969
INDEX 01 00:00:00
FILE "07 - Underground City.flac" WAVE
TRACK 07 AUDIO
TITLE "Underground City"
ISRC USAS91441007
REM REPLAYGAIN_TRACK_GAIN -6.69 dB
REM REPLAYGAIN_TRACK_PEAK 0.987000
INDEX 01 00:00:00
FILE "08 - This Side of Sunrise.flac" WAVE
TRACK 08 AUDIO
TITLE "This Side of Sunrise"
ISRC USAS91441008
REM REPLAYGAIN_TRACK_GAIN -6.50 dB
REM REPLAYGAIN_TRACK_PEAK 0.986969
INDEX 01 00:00:00
FILE "09 - Blur.flac" WAVE
TRACK 09 AUDIO
TITLE "Blur"
ISRC USAS91441009
REM REPLAYGAIN_TRACK_GAIN -6.23 dB
REM REPLAYGAIN_TRACK_PEAK 0.986969
INDEX 01 00:00:00
FILE "10 - Squeeze Thru.flac" WAVE
TRACK 10 AUDIO
TITLE "Squeeze Thru"
ISRC USAS91441010
REM REPLAYGAIN_TRACK_GAIN -6.88 dB
REM REPLAYGAIN_TRACK_PEAK 0.987000
INDEX 01 00:00:00

Отчет CUETools

[CUETools log; Date: 30.09.2018 21:52:27; Version: 2.1.5]
[CTDB TOCID: ARLTkkEXZcbr_qycUd5751xeIoE-] found.
Track | CTDB Status
1 | (19/19) Accurately ripped
2 | (19/19) Accurately ripped
3 | (19/19) Accurately ripped
4 | (19/19) Accurately ripped
5 | (19/19) Accurately ripped
6 | (19/19) Accurately ripped
7 | (19/19) Accurately ripped
8 | (19/19) Accurately ripped
9 | (19/19) Accurately ripped
10 | (19/19) Accurately ripped
[AccurateRip ID: 0016991b-00b1834c-890d070a] found.
Track [ CRC | V2 ] Status
01 [f15e0e70|a638a98e] (0+7/7) Accurately ripped
02 [c1578824|e1a7fd62] (0+7/7) Accurately ripped
03 [28e603d2|bdf9ce7c] (0+7/7) Accurately ripped
04 [1be2ea59|556a3a74] (0+7/7) Accurately ripped
05 [a89e0f7e|edb1197d] (0+7/7) Accurately ripped
06 [b8f5b8ab|c61d91f1] (0+7/7) Accurately ripped
07 [c9695acc|177e7b41] (0+7/7) Accurately ripped
08 [7b079c38|05fb2ef4] (0+7/7) Accurately ripped
09 [f1087d13|4bad141f] (0+7/7) Accurately ripped
10 [223d8548|3b7dddc4] (0+7/7) Accurately ripped
Track Peak [ CRC32 ] [W/O NULL]
-- 98,7 [20F95B01] [1D86B52F]
01 98,7 [B1D7166C] [52CB6E3E]
02 98,6 [76D99E6A] [B4492658]
03 98,7 [F974E356] [59F40B8F]
04 98,6 [3F416EB5] [DF2F2F85]
05 98,7 [4D07A643] [62440272]
06 98,6 [931108E9] [B63FA796]
07 98,7 [B7FDAED1] [81E8A602]
08 98,6 [D7683F3D] [A4502A57]
09 98,6 [3193A505] [4B73C9DD]
10 98,7 [04FED151] [F610BE6C]

Review by Mark F. Turner

Saxophonist Donny McCaslin brought a fresh perspective to the acoustic-electronic jazz soundscape with 2012's Casting for Gravity (Greenleaf Music) which earned a Grammy nomination for "Best Instrumental Jazz Solo" for the track "Stadium Jazz." Thankfully it was not a one-off as McCaslin reassembles the tightly knit band and savvy production from saxophonist David Binney in Fast Future, a release that continues the groove factor.
Like its predecessor, the music pulsates with energy as McCaslin's tenor powers over funky riffs, spaced-out backgrounds, and crisp beats provided by drummer Mark Guiliana, and bassist Tim Lefebvre while Jason Lindner colors things with copious keyboards embellishments. But there are also a few surprises. For one, there's the inclusion of wordless voice harmonies in the hard driving title track and the affecting spoken word performed by artist Jana Dagdagan on "Love What is Mortal."
Next comes the appeal of Electronic Dance Music in "54 Cymru Beats" and the reggae shaded "Squeeze Thru" as McCaslin cites EDM musicians/composers Aphex Twin and Skrillex as influences alongside jazz/electronic giants Herbie Hancock and Weather Report as the band stretches out and kills "This Side of Sunrise" and "Blur" with spot on performances and improvisation. In summary, McCaslin's Fast Future further suggests that the lines between acoustic jazz and electronica are at times blurred and that music regardless of its instrumentation can find common ground.
[cybertorrent.ru].t56845.torrent 
Торрент: Зарегистрирован [ 2018-10-01 16:05 ] · 4ED4896FC0A40F017FA2BF468DF3CBDE0AF04003

Скачать .torrent

Скачать

15 KB

Статус: проверено
Скачан: 0 раз
Размер: 352 MB
terms.php
[Профиль] [ЛС]
Показать сообщения:    
Ответить на тему

Текущее время: 23-Фев 16:26

Часовой пояс: UTC + 3



Вы не можете начинать темы
Вы не можете отвечать на сообщения
Вы не можете редактировать свои сообщения
Вы не можете удалять свои сообщения
Вы не можете голосовать в опросах
Вы не можете прикреплять файлы к сообщениям
Вы можете скачивать файлы