Статистика раздачи
Размер:  5,16 GB   |    Зарегистрирован:  4 дня   |    Скачан:  0 раз

Полного источника не было: Никогда

 
   
 
 

zaja ®

Пол:
Не указан
Стаж:
5 месяцев
Сообщений:
46

Тролли / Trolls
Страна: США
Жанр: мультфильм, мюзикл, фэнтези
Продолжительность: 01:32:27
Год выпуска: 2016
Перевод: Профессиональный (дублированный) iTunes
Русские субтитры: есть
Режиссёр: Уолт Дорн / Walt Dohrn, Майк Митчелл / Mike Mitchell
Роли озвучивали: Анна Кендрик, Джастин Тимберлэйк, Зои Дешанель, Кристофер Минц-Плассе, Кристин Барански, Расселл Брэнд, Гвен Стефани, Джон Клиз, Джеймс Корден, Джеффри Тэмбор
Описание: Отправляясь в увлекательное приключение, которое заведет ее далеко от привычного ей мира, Розочка объединяет усилия с самым мрачным троллем на свете по имени Цветан для достижения успеха в своей смелой миссии спасти ее друзей из тисков зловещих бергенов и их лидера, короля Хрящ Старший. Невероятные приключения Розочки проверят ее силу, покажут ее истинную суть и бросят вызов ее способности ударяться в пение в любой момент.
[box]Скачать сэмпл[/box]
Качество: BDRip 720p
Формат: MKV
Видео: MPEG-4 AVC, 6114 Кбит/с, 1280x544, 23,976 fps
Аудио: Rus, AC3, 384 kb/s (6 ch), 48 kHz
Аудио 2: Eng, DTS-ES, 1509 kb/s (6 ch), 48 kHz
Субтитры: Русские, Английские
[box] Had to use DTS-ES as strange set-up on 7.1 track. Many thanks to Narkyy for the script to fix banding and deblocking in a lot of scenes. Zones applied to those scenes and a few other areas.
Рип от decibeL.[/box]

Подробные технические данные

Общее
Уникальный идентификатор : 207045672556364477458995093500904941882 (0x9BC38BCACC6B28EBA493FB2064C5293A)
Полное имя : Trolls.2016.BDRip.720p.mkv
Формат : Matroska
Версия формата : Version 4 / Version 2
Размер файла : 5,16 Гбайт
Продолжительность : 1 ч. 32 м.
Общий поток : 7982 Кбит/сек
Дата кодирования : UTC 2017-02-01 18:19:44
Программа кодирования : mkvmerge v9.8.0 ('Kuglblids') 64bit
Библиотека кодирования : libebml v1.3.4 + libmatroska v1.4.5
Видео
Идентификатор : 1
Формат : AVC
Формат/Информация : Advanced Video Codec
Профиль формата : High@L4.1
Параметр CABAC формата : Да
Параметр ReFrames формата : 12 кадров
Идентификатор кодека : V_MPEG4/ISO/AVC
Продолжительность : 1 ч. 32 м.
Битрейт : 6114 Кбит/сек
Ширина : 1280 пикселей
Высота : 544 пикселя
Соотношение сторон : 2,35:1
Режим частоты кадров : Постоянный
Частота кадров : 23,976 (24000/1001) кадра/сек
Цветовое пространство : YUV
Субдискретизация насыщенности : 4:2:0
Битовая глубина : 8 бит
Тип развёртки : Прогрессивная
Бит/(Пиксели*Кадры) : 0.366
Размер потока : 3,93 Гбайт (76%)
Библиотека кодирования : x264 core 148 r2638 7599210
Настройки программы : cabac=1 / ref=12 / deblock=1:-3:-3 / analyse=0x3:0x113 / me=umh / subme=11 / psy=1 / psy_rd=0.94:0.00 / mixed_ref=1 / me_range=64 / chroma_me=1 / trellis=2 / 8x8dct=1 / cqm=0 / deadzone=21,11 / fast_pskip=0 / chroma_qp_offset=-2 / threads=6 / lookahead_threads=1 / sliced_threads=0 / nr=0 / decimate=0 / interlaced=0 / bluray_compat=0 / constrained_intra=0 / bframes=11 / b_pyramid=2 / b_adapt=2 / b_bias=0 / direct=3 / weightb=1 / open_gop=0 / weightp=2 / keyint=240 / keyint_min=23 / scenecut=40 / intra_refresh=0 / rc_lookahead=160 / rc=2pass / mbtree=0 / bitrate=6114 / ratetol=1.0 / qcomp=0.80 / qpmin=0 / qpmax=69 / qpstep=4 / cplxblur=20.0 / qblur=0.5 / vbv_maxrate=38000 / vbv_bufsize=30000 / nal_hrd=none / filler=0 / ip_ratio=1.30 / pb_ratio=1.20 / aq=1:0.90 / zones=6402,6454,b=2/6502,6560,b=2/6574,6701,b=2/6797,6813,b=2/7374,7397,b=2/7445,7524,b=2/8195,8276,b=2/8356,8373,b=2/8408,8524,b=2/11767,11787,b=2/11953,12049,b=2/12327,12419,b=2/13083,13182,b=2/19043,19145,b=2/19339,19391,b=2/19392,19427,b=2/19443,19498,b=2/19683,19821,b=2/20169,20222,b=2/20683,20790,b=2/20940,21027,b=2/21049,21300,b=2/21356,21424,b=2/21501,21667,b=2/21957,22013,b=2/22091,22245,b=2/22410,22427,b=2/23270,23375,b=2/23769,23794,b=2/24893,24950,b=2/25036,25082,b=2/25270,25309,b=2/25896,26013,b=2/26240,26321,b=2/26885,26914,b=2/27098,27167,b=2/31140,31168,b=2/36097,36300,b=2/38726,38803,b=2/40778,41118,b=2/41248,41567,b=2/41996,42053,b=2/42648,42733,b=2/42734,43073,b=2/43175,43312,b=2/43366,43474,b=2/43677,43728,b=2/43938,44014,b=2/44015,44214,b=2/44515,44557,b=2/44757,45057,b=2/45156,45251,b=2/48775,48912,b=2/48913,49093,b=2/50291,50390,b=2/55291,55374,b=2/55706,55734,b=2/55948,56044,b=2/56178,56236,b=2/56821,56879,b=2/56880,56946,b=2/57778,57815,b=2/58008,58033,b=2/58281,58306,b=2/58850,58865,b=2/59648,59761,b=2/59920,59995,b=2/60551,60618,b=2/69700,69887,b=2/69953,69994,b=2/71434,71716,b=2/71790,72110,b=2/72316,72367,b=2/72843,72921,b=2/75241,75292,b=2/76074,76115,b=2/76269,76340,b=2/76393,76411,b=2/77701,77741,b=2/78418,78459,b=2/79202,79264,b=2/82376,82408,b=2/85739,85763,b=2/85849,85869,b=2/88446,88462,b=2/88934,88957,b=2/88976,89028,b=2/89347,89365,b=2/89403,89567,b=2/94070,94334,b=2/94894,95021,b=2/95079,95172,b=2/101495,101799,b=2/101866,101941,b=2/103551,103652,b=2/103846,104004,b=2/104606,104636,b=2/104668,104757,b=2/105066,105314,b=2/106178,106232,b=2/107522,107575,b=2/107824,108040,b=2/109353,109427,b=2/112084,112263,b=2/113301,113399,b=2/113439,113482,b=2/114496,114531,b=2/115160,115203,b=2/115338,115373,b=2/121469,121864,b=2
Язык : English
Default : Да
Forced : Нет
Цветовой диапазон : Limited
Основные цвета : BT.709
Характеристики трансфера : BT.709
Коэффициенты матрицы : BT.709
Аудио #1
Идентификатор : 2
Формат : AC-3
Формат/Информация : Audio Coding 3
Расширение режима : CM (complete main)
Параметр Endianness формата : Big
Идентификатор кодека : A_AC3
Продолжительность : 1 ч. 32 м.
Вид битрейта : Постоянный
Битрейт : 384 Кбит/сек
Каналы : 6 каналов
Расположение каналов : Front: L C R, Side: L R, LFE
Частота : 48,0 КГц
Частота кадров : 31,250 кадров/сек (1536 spf)
Метод сжатия : С потерями
Размер потока : 254 Мбайт (5%)
Заголовок : iTunes
Язык : Russian
Default : Да
Forced : Нет
Аудио #2
Идентификатор : 3
Формат : DTS
Формат/Информация : Digital Theater Systems
Профиль формата : ES Matrix / Core
Режим : 16
Параметр Endianness формата : Big
Идентификатор кодека : A_DTS
Продолжительность : 1 ч. 32 м.
Вид битрейта : Постоянный
Битрейт : 1509 Кбит/сек
Каналы : 7 каналов / 6 каналов
Расположение каналов : Front: L C R, Side: L R, Back: C, LFE / Front: L C R, Side: L R, LFE
Частота : 48,0 КГц
Частота кадров : 93,750 кадра/сек (512 spf)
Битовая глубина : 24 бит
Метод сжатия : С потерями
Размер потока : 998 Мбайт (19%)
Язык : English
Default : Нет
Forced : Нет
Текст #1
Идентификатор : 4
Формат : UTF-8
Идентификатор кодека : S_TEXT/UTF8
Идентификатор кодека/Информация : UTF-8 Plain Text
Продолжительность : 1 ч. 24 м.
Битрейт : 0 бит/сек
Count of elements : 2
Размер потока : 65,0 байт (0%)
Заголовок : Forced
Язык : Russian
Default : Да
Forced : Нет
Текст #2
Идентификатор : 5
Формат : UTF-8
Идентификатор кодека : S_TEXT/UTF8
Идентификатор кодека/Информация : UTF-8 Plain Text
Продолжительность : 1 ч. 31 м.
Битрейт : 98 бит/сек
Count of elements : 1358
Размер потока : 66,0 Кбайт (0%)
Язык : Russian
Default : Нет
Forced : Нет
Текст #3
Идентификатор : 6
Формат : UTF-8
Идентификатор кодека : S_TEXT/UTF8
Идентификатор кодека/Информация : UTF-8 Plain Text
Продолжительность : 1 ч. 23 м.
Битрейт : 65 бит/сек
Count of elements : 1380
Размер потока : 39,9 Кбайт (0%)
Язык : English
Default : Нет
Forced : Нет
Текст #4
Идентификатор : 7
Формат : UTF-8
Идентификатор кодека : S_TEXT/UTF8
Идентификатор кодека/Информация : UTF-8 Plain Text
Продолжительность : 1 ч. 29 м.
Битрейт : 72 бит/сек
Count of elements : 1895
Размер потока : 47,6 Кбайт (0%)
Заголовок : SDH
Язык : English
Default : Нет
Forced : Нет
Меню
00:00:00.000 : en:Chapter 1
00:02:20.474 : en:Chapter 2
00:06:22.924 : en:Chapter 3
00:10:42.642 : en:Chapter 4
00:13:26.597 : en:Chapter 5
00:18:34.363 : en:Chapter 6
00:22:12.790 : en:Chapter 7
00:25:41.081 : en:Chapter 8
00:28:53.732 : en:Chapter 9
00:32:55.098 : en:Chapter 10
00:36:33.107 : en:Chapter 11
00:40:56.787 : en:Chapter 12
00:44:21.659 : en:Chapter 13
00:47:27.970 : en:Chapter 14
00:51:27.084 : en:Chapter 15
00:55:45.675 : en:Chapter 16
00:59:58.761 : en:Chapter 17
01:03:17.084 : en:Chapter 18
01:05:17.663 : en:Chapter 19
01:07:56.530 : en:Chapter 20
01:10:25.262 : en:Chapter 21
01:13:31.657 : en:Chapter 22
01:16:21.243 : en:Chapter 23
01:21:44.733 : en:Chapter 24

Скриншоты

[cybertorrent.ru].t56876.torrent 
Торрент: Зарегистрирован [ 2018-07-12 00:16 ] · E2826D57E9B0EBACD1CE1639267A5355EFF74D2A

Скачать .torrent

Скачать

13 KB

Статус: проверено
Скачан: 0 раз
Размер: 5,16 GB
Профиль [ЛС]
Показать сообщения:    

Текущее время: 16-Июл 07:03

Часовой пояс: UTC ± 0



Вы не можете начинать темы
Вы не можете отвечать на сообщения
Вы не можете редактировать свои сообщения
Вы не можете удалять свои сообщения
Вы не можете голосовать в опросах
Вы не можете прикреплять файлы к сообщениям
Вы можете скачивать файлы