Статистика раздачи
Размер:  7,08 GB   |    Зарегистрирован:  6 дней   |    Скачан:  0 раз

Полного источника не было: Никогда

 
   
 
 

zaja ®

Пол:
Не указан
Стаж:
5 месяцев 2 дня
Сообщений:
46

Черный котел / The Black Cauldron
Страна: США
Жанр: фэнтези, приключения
Продолжительность: 01:20:08
Год выпуска: 1985
Перевод 1: Профессиональный (дублированный) Пифагор
Перевод 2: Авторский (одноголосый закадровый) Юрий Живов
Перевод 3: Авторский (одноголосый закадровый) Николай "Антонов"
Русские субтитры: есть
Режиссёр: Тед Берман / Ted Berman, Ричард Рич / Richard Rich
Описание: Главный герой — Таран, мальчик-свинопас, мечтающий стать великим воином и защитником родного Придейна. Его антагонист — злой и могущественный Рогатый король, вознамерившийся завладеть Чёрным котлом и с помощью заключённой в нём силы воскресить армию нежити и покорить мир. Однако найти Чёрный котёл — непростая задача. Его местонахождение может указать волшебная свинка Хен Вен, живущая у старого волшебника Даллбена. Узнав о намерениях Рогатого короля, Даллбен поручает Тарану отвести свинку в надёжное место. По дороге Таран теряет Хен Вен, и начинаются его приключения.
Доп. информация: Оцифровка перевода "Антонова" - xfiles. Дубляж с DVD, перевод Живова с раздачи Саша и Серёжа. Синхронизация звука - Dreven.
Семпл: http://sendfile.su/1425021
Качество: WEB-DL 1080p Amazon
Формат: MKV
Видео: 1920x816 (2.35:1) @ 1918x816, 23.976 fps, AVC, ~10.8 Mbps, 0.288 bits/pixel
Аудио 1: Russian, 48.0 KHz, AC3, 2 ch, 192 Kbps - Пифагор
Аудио 2: Russian, 48.0 KHz, AC3, 6 ch, 384 Kbps - Юрий Живов
Аудио 3: Russian, 48.0 KHz, FLAC, 1 ch, 396 Kbps - Николай "Антонов"
Аудио 4: English, 48.0 KHz, AC3+, 6 ch, 640 Kbps
Субтитры: русские, английские

Подробные технические данные

General
Unique ID : 159157814000856428763805674876545042570 (0x77BCAE139C8543DC82F3BEC80778888A)
Complete name : D:\The Black Cauldron. WEB-DL 1080p.mkv
Format : Matroska
Format version : Version 4 / Version 2
File size : 7.08 GiB
Duration : 1 h 20 min
Overall bit rate mode : Variable
Overall bit rate : 12.6 Mb/s
Encoded date : UTC 2018-06-10 19:22:29
Writing application : mkvmerge v23.0.0 ('The Bride Said No') 64-bit
Writing library : libebml v1.3.6 + libmatroska v1.4.9
Video
ID : 1
Format : AVC
Format/Info : Advanced Video Codec
Format profile : High@L4
Format settings : CABAC / 4 Ref Frames
Format settings, CABAC : Yes
Format settings, ReFrames : 4 frames
Codec ID : V_MPEG4/ISO/AVC
Duration : 1 h 20 min
Bit rate mode : Variable
Bit rate : 11.0 Mb/s
Maximum bit rate : 15.0 Mb/s
Width : 1 920 pixels
Height : 816 pixels
Display aspect ratio : 2.35:1
Frame rate mode : Constant
Frame rate : 23.976 (24000/1001) FPS
Color space : YUV
Chroma subsampling : 4:2:0
Bit depth : 8 bits
Scan type : Progressive
Bits/(Pixel*Frame) : 0.294
Stream size : 6.18 GiB (87%)
Writing library : x264 core 148 r2623 d5b2374
Encoding settings : cabac=1 / ref=4 / deblock=1:-1:-1 / analyse=0x3:0x133 / me=umh / subme=9 / psy=1 / psy_rd=1.00:0.15 / mixed_ref=1 / me_range=24 / chroma_me=1 / trellis=2 / 8x8dct=1 / cqm=0 / deadzone=21,11 / fast_pskip=1 / chroma_qp_offset=-3 / threads=25 / lookahead_threads=4 / sliced_threads=0 / nr=150 / decimate=1 / interlaced=0 / bluray_compat=0 / constrained_intra=0 / bframes=8 / b_pyramid=2 / b_adapt=2 / b_bias=0 / direct=3 / weightb=1 / open_gop=0 / weightp=2 / keyint=120 / keyint_min=61 / scenecut=0 / intra_refresh=0 / rc_lookahead=120 / rc=crf / mbtree=1 / crf=18.0 / qcomp=0.60 / qpmin=0 / qpmax=69 / qpstep=4 / vbv_maxrate=15000 / vbv_bufsize=31250 / crf_max=0.0 / nal_hrd=vbr / filler=0 / ip_ratio=1.40 / aq=3:1.00
Language : English
Default : Yes
Forced : No
Color range : Limited
Color primaries : BT.709
Transfer characteristics : BT.709
Matrix coefficients : BT.709
Audio #1
ID : 2
Format : AC-3
Format/Info : Audio Coding 3
Codec ID : A_AC3
Duration : 1 h 20 min
Bit rate mode : Constant
Bit rate : 192 kb/s
Channel(s) : 2 channels
Channel positions : Front: L R
Sampling rate : 48.0 kHz
Frame rate : 31.250 FPS (1536 SPF)
Bit depth : 16 bits
Compression mode : Lossy
Stream size : 110 MiB (2%)
Title : Пифагор
Language : Russian
Service kind : Complete Main
Default : Yes
Forced : No
Audio #2
ID : 3
Format : AC-3
Format/Info : Audio Coding 3
Codec ID : A_AC3
Duration : 1 h 20 min
Bit rate mode : Constant
Bit rate : 384 kb/s
Channel(s) : 6 channels
Channel positions : Front: L C R, Side: L R, LFE
Sampling rate : 48.0 kHz
Frame rate : 31.250 FPS (1536 SPF)
Bit depth : 16 bits
Compression mode : Lossy
Stream size : 220 MiB (3%)
Title : Юрий Живов
Language : Russian
Service kind : Complete Main
Default : No
Forced : No
Audio #3
ID : 4
Format : FLAC
Format/Info : Free Lossless Audio Codec
Codec ID : A_FLAC
Duration : 1 h 20 min
Bit rate mode : Variable
Bit rate : 396 kb/s
Channel(s) : 1 channel
Channel positions : Front: C
Sampling rate : 48.0 kHz
Frame rate : 11.719 FPS (4096 SPF)
Bit depth : 16 bits
Stream size : 227 MiB (3%)
Title : Николай Антонов
Writing library : libFLAC 20080709 (UTC 2008-07-09)
Language : Russian
Default : No
Forced : No
Audio #4
ID : 5
Format : E-AC-3
Format/Info : Enhanced Audio Coding 3
Codec ID : A_EAC3
Duration : 1 h 20 min
Bit rate mode : Constant
Bit rate : 640 kb/s
Channel(s) : 6 channels
Channel positions : Front: L C R, Side: L R, LFE
Sampling rate : 48.0 kHz
Frame rate : 187.500 FPS (256 SPF)
Compression mode : Lossy
Stream size : 367 MiB (5%)
Language : English
Service kind : Complete Main
Default : No
Forced : No
Text #1
ID : 6
Format : UTF-8
Codec ID : S_TEXT/UTF8
Codec ID/Info : UTF-8 Plain Text
Duration : 1 h 15 min
Bit rate : 72 b/s
Count of elements : 876
Stream size : 39.9 KiB (0%)
Language : Russian
Default : No
Forced : No
Text #2
ID : 7
Format : UTF-8
Codec ID : S_TEXT/UTF8
Codec ID/Info : UTF-8 Plain Text
Duration : 1 h 15 min
Bit rate : 44 b/s
Count of elements : 933
Stream size : 24.7 KiB (0%)
Language : English
Default : No
Forced : No
Text #3
ID : 8
Format : UTF-8
Codec ID : S_TEXT/UTF8
Codec ID/Info : UTF-8 Plain Text
Duration : 1 h 15 min
Bit rate : 47 b/s
Count of elements : 1018
Stream size : 26.4 KiB (0%)
Title : SDH
Language : English
Default : No
Forced : No
Menu
00:00:00.000 : en:Studio Logo
00:00:19.000 : en:The Legend of the Black Cauldron, Opening Credits
00:01:23.000 : en:Dallben Fears Something Is Wrong
00:03:21.000 : en:Taran Dreams of Being a Warrior
00:06:33.000 : en:Dallben Uses Hen Wen's Powers
00:09:34.000 : en:The Horned King Makes a Vow
00:11:24.000 : en:Taran and Hen Wen Start Their Journey
00:15:39.000 : en:Taran Tries to Save Hen Wen
00:18:19.000 : en:Taran Tries to Find Hen Wen
00:21:02.000 : en:Hen Wen Is Brought to the Horned King
00:23:42.000 : en:Taran Tries to Escape
00:26:07.000 : en:Taran Regrets His Actions
00:28:17.000 : en:Taran and Eilonwy Search
00:30:22.000 : en:Taran and Eilonwy Meet Fflewddur
00:32:29.000 : en:Taran Makes a Discovery
00:34:27.000 : en:Taran, Eilonwy, and Fflewddur Try to Escape
00:36:05.000 : en:Creeper Gives Horned King the News
00:37:59.000 : en:Eilonwy and Taran Argue
00:39:53.000 : en:Taran Apologizes to Eilonwy
00:42:30.000 : en:The Group Tries to Find Hen Wen
00:44:07.000 : en:The Group Meet the Fairfolks
00:48:47.000 : en:The Search for the Black Cauldron Continues
00:50:43.000 : en:The Witches Torment Fflewddur
00:52:57.000 : en:Taran Asks for the Black Cauldron
00:56:21.000 : en:The Witches Offer a Warning
00:58:10.000 : en:Doli Leaves in Anger and Taran Tries to Believe in Himself
00:59:49.000 : en:The Horned King Executes His Plan
01:01:53.000 : en:Dead Warriors Awaken and Gurgi Tries to Help
01:05:22.000 : en:The Horned King Tries to Attack Taran
01:08:18.000 : en:The Horned King's Castle Is Destroyed
01:10:58.000 : en:Taran Tries to Strike another Bargain with the Witches
01:14:01.000 : en:Gurgi Is Returned
01:16:04.000 : en:End Credits

Скриншоты

[cybertorrent.ru].t56877.torrent 
Торрент: Зарегистрирован [ 2018-07-12 00:16 ] · F1A2F144D703811FB757B7A441960C0B37425BE9

Скачать .torrent

Скачать

18 KB

Статус: проверено
Скачан: 0 раз
Размер: 7,08 GB
Профиль [ЛС]
Показать сообщения:    

Текущее время: 18-Июл 04:40

Часовой пояс: UTC ± 0



Вы не можете начинать темы
Вы не можете отвечать на сообщения
Вы не можете редактировать свои сообщения
Вы не можете удалять свои сообщения
Вы не можете голосовать в опросах
Вы не можете прикреплять файлы к сообщениям
Вы можете скачивать файлы