Статистика раздачи
Размер:  698 MB   |    Зарегистрирован:  3 месяца 10 дней   |    Скачан:  0 раз

Полного источника не было: Никогда

Личеров:  4  [  0 KB/s  ]  
 
   
 
 

Red ®

Пол:
Не указан
Стаж:
3 месяца 11 дней
Сообщений:
245

Comedy Club на Первом (выпуск 2)
Дата/Год выпуска: 22.12.2006
Страна: Россия
Жанр: Юмор
Продолжительность: 01:28:16
Перевод: Не требуется
Русские субтитры: нет
Телеканал: Первый канал

Описание: Казалось, лишь вчера Камеди появился на Первом канале, но вот и настало время для первого юбилея: 50 лет на Первом канале! Немножечко печально, не все дожили, но костячок нам сохранить удалось... Юбилейный вечер Comedy на Первом!!!
Качество: SATRip
Формат: AVI
Видео: DivX 5 576x432 25fps
Аудио: MP3 48000Hz mono 96kbps

Афишка

Гарик Харламов, Гарик Мартиросян
- семья логопедов
- невероятный случай с президентом Франции Жаком Шираком
- Хабаровская версия "Ищу тебя"
Тимур Родригес, Макс Перлов
- из архивов Первого канала
Павел Воля
- Владимир Шаинский, Ирина Безрукова с сыном, Дмитрий Булыкин, Геннадий Ветров, Антон Макарский, Сергей Лазарев
Вадим Галыгин
- союзмультфильм (Гарик Харламов)
Дмитрий Сорокин
- российская экологическая
- про светлое будущее
- развеселая поучительная
- про это
- московская правдивая автолюбительская
Гарик Харламов, Тимур Батрутдинов
- проводы в армию
- в поисках девушки
Таир
- программа Максимум
Экспериментальный юмор
Гарик Мартиросян, Дмитрий Сорокин, Макс Перлов
- эфиопская народная песня "про Пушкина"
Александр Ревва
- бабушка провинциального театрального актера (Гарик Харламов)
- переводчик (Гарик Харламов, Тимур Батрутдинов)
Александр Незлобин
- про женщин
Гарик Мартиросян, Дмитрий Сорокин, Макс Перлов
- VIP-старушки
Сестры Зайцевы
- интервью с лучшим водителем маршрутного такси
Гарик Мартиросян, Гарик Харламов, Рояль
- музыкальная школа в Гарлеме
Гарик Мартиросян
- джазовый фестиваль в Клайпиде (Вадим Галыгин)
Гарик Харламов, Тимур Батрутдинов
- скалолаз
- интервью с тренером сборной Германии

Скриншоты

MediaInfo

General
Format : AVI
Format/Info : Audio Video Interleave
File size : 698 MiB
Duration : 1 h 28 min
Overall bit rate : 1 106 kb/s
Movie name : post.kvn.comedy.club.1kanal.(02).by.s@nya [22.12.2006]
Recorded date : 22.12.2006
Writing application : VirtualDubMod 1.5.10.2 (build 2540/release)
Writing library : VirtualDubMod build 2540/release
Copyright : www.nash.net.ua & www.kvnforall.info
Video
ID : 0
Format : MPEG-4 Visual
Format settings, BVOP : 1
Format settings, QPel : No
Format settings, GMC : No warppoints
Format settings, Matrix : Default (H.263)
Muxing mode : Packed bitstream
Codec ID : DX50
Codec ID/Hint : DivX 5
Duration : 1 h 28 min
Bit rate : 1 000 kb/s
Nominal bit rate : 4 854 kb/s
Width : 576 pixels
Height : 432 pixels
Display aspect ratio : 5:4
Original display aspect ratio : 4:3
Frame rate : 25.000 FPS
Color space : YUV
Chroma subsampling : 4:2:0
Bit depth : 8 bits
Scan type : Progressive
Compression mode : Lossy
Bits/(Pixel*Frame) : 0.161
Stream size : 631 MiB (90%)
Writing library : DivX 6.2.5 (UTC 2006-06-16)
Audio
ID : 1
Format : MPEG Audio
Format version : Version 1
Format profile : Layer 3
Codec ID : 55
Codec ID/Hint : MP3
Duration : 1 h 28 min
Bit rate mode : Constant
Bit rate : 96.0 kb/s
Channel(s) : 1 channel
Sampling rate : 48.0 kHz
Compression mode : Lossy
Stream size : 60.6 MiB (9%)
Alignment : Aligned on interleaves
Interleave, duration : 40 ms (1.00 video frame)
Interleave, preload duration : 504 ms
Рип предоставлен: L0Ve
Афишка: PiXeL
Команда желает вам веселого просмотра!
Все выпуски Comedy Club на Первом
[cybertorrent.ru].t569.torrent 
Торрент: Зарегистрирован [ 2018-02-15 20:34 ] · 4644A2ECF47A34F4080E54DA17335A4396648022

Скачать .torrent

Скачать

14 KB

Статус: проверено
Скачан: 0 раз
Размер: 698 MB
Профиль [ЛС]
Показать сообщения:    

Текущее время: 26-Май 15:38

Часовой пояс: UTC ± 0



Вы не можете начинать темы
Вы не можете отвечать на сообщения
Вы не можете редактировать свои сообщения
Вы не можете удалять свои сообщения
Вы не можете голосовать в опросах
Вы не можете прикреплять файлы к сообщениям
Вы можете скачивать файлы