Статистика раздачи
Размер:  1,72 GB   |    Зарегистрирован:  2 месяца 11 дней   |    Скачан:  0 раз

Полного источника не было: Никогда

 
   
 
 

genjabtr ®

Пол:
Не указан
Стаж:
7 месяцев 8 дней
Сообщений:
316

Знаменитый детектив Конан (Эпизод первый):
Знаменитый детектив, который стал маленьким
-Страна: Япония
Жанр: Приключения, детектив, романтика, сёнэн
Продолжительность: ТВ-спэшл (1 эп.), 95 мин.
Премьера: 09.12.2016
Озвучивание: Отсутствует
Перевод: ShinkaDan-- Перевод с японского: AnjiJa
- Редакция, тайминг, оформление: Natan
- Помощь в переводе, редакторские правки: Tess и Tami
-Режиссер: Ямамото Ясуйтиро
Автор оригинала: Аояма Госё-Описание: Почему детектив-старшеклассник Кудо Шин'ичи превратился в Эдогаву Конана? Как получилось, что он перебрался в дом к Ран? Как оказались мужчины в чёрном на американских горках? Ремейк первых серий знаменитого детектива, с добавлением новых, ранее не показывавшихся по телеку эксклюзивных кадров, более полно раскрывающих сюжетную линию "Знаменитого детектива" и проливающих свет на многие неясности в телевизионной версии истории.-Автор рипа: [모에-Raws]
Качество: HDTVRip (720p)
Тип релиза: Без хардсаба
Формат видео: MP4
Видео: x264 (8 бит), 1280x720 (16:9), 23,976 кадра/сек, ~ 2 630 Кбит/сек-Аудио:
AAC, 2 канала, 48000Hz, ~206 Кбит/сек; JAP (в составе контейнера)-Субтитры: русские (внешний софтсаб)-Дополнительная информация:
Это авторская раздача, озвучка от нашей команды будет позже. Следите за нашими переводами в нашем твиттере или в теме по знаменитому детективу на каге.-

Подробные тех. данные

General
Complete name : J:\Раздачи нашего сайта\[ShinkaDan] Meitantei Conan - Episode One - Chiisaku Natta Meitantei\[모에-Raws] Detective Conan - Episode One ~Chissaku Natta Meitantei~ (2-hour Special) (YTV 1280x720 x264 AAC).mp4
Format : MPEG-4
Format profile : Base Media
Codec ID : isom (isom)
File size : 1.72 GiB
Duration : 1 h 33 min
Overall bit rate mode : Variable
Overall bit rate : 2 630 kb/s
Encoded date : UTC 2016-12-09 18:15:47
Tagged date : UTC 2016-12-09 18:15:47
Video
ID : 1
Format : AVC
Format/Info : Advanced Video Codec
Format profile : High@L4.1
Format settings, CABAC : Yes
Format settings, ReFrames : 6 frames
Codec ID : avc1
Codec ID/Info : Advanced Video Coding
Duration : 1 h 33 min
Bit rate : 2 470 kb/s
Maximum bit rate : 18.3 Mb/s
Width : 1 280 pixels
Height : 720 pixels
Display aspect ratio : 16:9
Frame rate mode : Constant
Frame rate : 23.976 (24000/1001) FPS
Color space : YUV
Chroma subsampling : 4:2:0
Bit depth : 8 bits
Scan type : Progressive
Bits/(Pixel*Frame) : 0.112
Stream size : 1.62 GiB (94%)
Writing library : x264 core 140 r2377+40 929f149 tMod [8-bit@all X86_64]
Encoding settings : cabac=1 / ref=6 / deblock=1:1:-1 / analyse=0x3:0x113 / me=umh / subme=9 / psy=1 / fade_compensate=0.00 / psy_rd=1.00:0.00 / mixed_ref=1 / me_range=32 / chroma_me=1 / trellis=2 / 8x8dct=1 / cqm=0 / deadzone=21,11 / fast_pskip=1 / chroma_qp_offset=-2 / threads=16 / lookahead_threads=2 / sliced_threads=0 / nr=0 / decimate=1 / interlaced=0 / bluray_compat=0 / constrained_intra=0 / fgo=0 / bframes=9 / b_pyramid=2 / b_adapt=2 / b_bias=0 / direct=3 / weightb=1 / open_gop=0 / weightp=2 / keyint=240 / keyint_min=24 / scenecut=40 / intra_refresh=0 / rc=crf / mbtree=0 / crf=19.0000 / qcomp=0.70 / qpmin=0:0:0 / qpmax=69:69:69 / qpstep=4 / ip_ratio=1.40 / pb_ratio=1.30 / aq=1:0.85 / aq-sensitivity=10.00 / aq-factor=1.00:1.00:1.00 / aq2=0 / aq3=0
Encoded date : UTC 2016-12-09 17:58:29
Tagged date : UTC 2016-12-09 18:15:59
Audio
ID : 2
Format : AAC
Format/Info : Advanced Audio Codec
Format profile : LC
Codec ID : 40
Duration : 1 h 33 min
Bit rate mode : Variable
Bit rate : 156 kb/s
Maximum bit rate : 206 kb/s
Channel(s) : 2 channels
Channel positions : Front: L R
Sampling rate : 48.0 kHz
Frame rate : 46.875 FPS (1024 spf)
Compression mode : Lossy
Stream size : 105 MiB (6%)
Encoded date : UTC 2016-12-09 18:10:18
Tagged date : UTC 2016-12-09 18:15:59
Menu
00:00:00.000 : Preview
00:01:09.861 : Sponsor
00:01:24.876 : A-part
00:04:21.011 : OP
00:05:49.140 : B-part
00:18:27.815 : C-part
00:27:24.768 : Sponsor
00:27:39.700 : D-part
00:39:33.663 : E-part
01:04:33.536 : Sponsor
01:04:48.426 : F-part
01:10:38.401 : G-part
01:18:08.350 : H-part & ED Credit
01:33:14.297 : Detective Conan 21th Teaser CM
01:33:44.160 : End

Скриншоты


[cybertorrent.ru].t56912.torrent 
Торрент: Зарегистрирован [ 2018-07-12 00:16 ] · 4E1FBF15707B3AF92413099DA0D8EFFC991E6649

Скачать .torrent

Скачать

18 KB

Статус: проверено
Скачан: 0 раз
Размер: 1,72 GB
Профиль [ЛС]
Показать сообщения:    

Текущее время: 23-Сен 20:32

Часовой пояс: UTC ± 0



Вы не можете начинать темы
Вы не можете отвечать на сообщения
Вы не можете редактировать свои сообщения
Вы не можете удалять свои сообщения
Вы не можете голосовать в опросах
Вы не можете прикреплять файлы к сообщениям
Вы можете скачивать файлы
Torrents24.ru открытый BitTorrent Torrents24.pl открытый BitTorrent CyberTorrent.ru открытый BitTorrent BtList.ru рейтинг BitTorrent трекеров Яндекс.Метрика