BitTorrent клиенты



Бои без правил / A Prayer Before Dawn (Жан-Стефан Совер / Jean-Stéphane Sauvaire) [2017, Великобритания, Франция, Китай, Камбоджа, США, драма, криминал, биография, спорт, BDRip 720p] [UK Transfer] MVO (HDrezka) + Original + Sub (Rus, Eng)

Ответить на тему
Статистика раздачи
Размер:  8,71 GB   |    Зарегистрирован:  4 месяца 14 дней   |    Скачан:  0 раз

Полного источника не было: Никогда

 
   
 
 
Автор Сообщение

RussianGirl ®

Пол: Не указан

Стаж: 1 год

Сообщений: 1309

Создавать темы 02-Окт-2018 15:29

[Цитировать]

Бои без правилA Prayer Before Dawn- Год выпуска: 2017
Страна: Великобритания, Франция, Китай, Камбоджа, США
Студия: A24
Жанр: боевик, драма, криминал, биография, спорт-Продолжительность: 01:56:44
Перевод: Любительский (многоголосый закадровый) HDrezka Studio
Субтитры: русские, английские (хардсаб на тайский, SDH)
Оригинальная аудиодорожка: английский, тайский-Режиссёр: Жан-Стефан Совер / Jean-Stéphane Sauvaire
В ролях: Джо Коул, Витхая Пансрингарм, Паня Йиммумрхай, Порнчанок Мабкланг, Николас Шейк, Билли Мур, Сура Сирмалай, Сакда Ниамхом, Сомлок Камсинг, Чалоемпорн Саватсук и др.-Описание: Молодой британец Билли Мур попадает в одну из тюрем Таиланда, известную своей жестокостью и невыносимыми условиями для заключённых. Чтобы выжить, Билли решает заняться муай-тай - тайским боксом, одним из самых жёстких видов боевых искусств.-КиноПоиск | IMDb | Sample-Тип релиза: BDRip 720p (Источник: A.Prayer.Before.Dawn.2017.1080p.BluRay.AVC.DTS-HD.MA.5.1-FGT)
Контейнер: MKV
Видео: x264, 1280x536 (2.40:1), 23.976 fps, ~9341 kbps avg, 0.568 bit/pixel
Аудио #1: Russian 48.0 KHz, АC3, 2/0 (Front: L R) ch, ~192.00 kbps avg |HDrezka|
Аудио #2: Multi 48.0 KHz, АC3, 3/2 (L,C,R,l,r) + LFE ch, ~640.00 kbps avg |Original|
Аудио #3: Multi 48.0 KHz, FLAC, 2/0 (Front: L R) ch, ~506.00 kbps avg |from LPCM|
Формат субтитров: softsub (SRT)-

Релиз


Рип и синхронизация звука - whip93.

MediaInfo | x264 log

x264 log

---[Information] [27.09.2018 7:56:52] raw [info]: 1280x536p 1:1 @ 24000/1001 fps (cfr)
---[Information] [27.09.2018 7:56:52] x264 [info]: using SAR=1/1
---[Information] [27.09.2018 7:56:52] x264 [info]: using cpu capabilities: MMX2 SSE2Fast SSSE3 SSE4.2 AVX
---[Information] [27.09.2018 7:56:52] x264 [info]: profile High, level 4.1, 4:2:0, 8-bit
---[Information] [27.09.2018 18:44:16] x264 [info]: frame I:842 Avg QP:12.98 size:112194
---[Information] [27.09.2018 18:44:17] x264 [info]: frame P:39037 Avg QP:15.22 size: 77837
---[Information] [27.09.2018 18:44:17] x264 [info]: frame B:128059 Avg QP:16.73 size: 39401
---[Information] [27.09.2018 18:44:17] x264 [info]: consecutive B-frames: 2.4% 4.7% 12.5% 19.3% 13.4% 37.6% 2.7% 0.6% 1.1% 0.7% 0.9% 0.8% 0.9% 0.9% 1.6%
---[Information] [27.09.2018 18:44:17] x264 [info]: mb I I16..4: 26.3% 56.7% 17.0%
---[Information] [27.09.2018 18:44:17] x264 [info]: mb P I16..4: 7.8% 44.0% 5.2% P16..4: 18.5% 16.3% 4.4% 1.5% 0.1% skip: 2.2%
---[Information] [27.09.2018 18:44:17] x264 [info]: mb B I16..4: 0.8% 13.5% 0.5% B16..8: 34.6% 21.7% 4.7% direct:10.2% skip:14.1% L0:41.8% L1:44.4% BI:13.8%
---[Information] [27.09.2018 18:44:17] x264 [info]: 8x8 transform intra:83.3% inter:54.6%
---[Information] [27.09.2018 18:44:17] x264 [info]: coded y,uvDC,uvAC intra: 94.4% 92.4% 81.9% inter: 54.3% 47.1% 14.9%
---[Information] [27.09.2018 18:44:17] x264 [info]: i16 v,h,dc,p: 10% 3% 23% 64%
---[Information] [27.09.2018 18:44:17] x264 [info]: i8 v,h,dc,ddl,ddr,vr,hd,vl,hu: 11% 8% 16% 9% 11% 11% 11% 10% 13%
---[Information] [27.09.2018 18:44:17] x264 [info]: i4 v,h,dc,ddl,ddr,vr,hd,vl,hu: 14% 6% 11% 10% 13% 12% 11% 10% 12%
---[Information] [27.09.2018 18:44:17] x264 [info]: i8c dc,h,v,p: 52% 19% 15% 14%
---[Information] [27.09.2018 18:44:17] x264 [info]: Weighted P-Frames: Y:2.3% UV:1.5%
---[Information] [27.09.2018 18:44:17] x264 [info]: ref P L0: 47.3% 3.9% 16.9% 7.0% 6.3% 3.9% 4.0% 2.4% 2.6% 1.9% 2.1% 1.7% 0.1% 0.0%
---[Information] [27.09.2018 18:44:17] x264 [info]: ref B L0: 72.8% 11.6% 5.2% 3.0% 2.0% 1.6% 1.3% 1.0% 0.8% 0.5% 0.2%
---[Information] [27.09.2018 18:44:17] x264 [info]: ref B L1: 95.2% 4.8%
---[Information] [27.09.2018 18:44:17] x264 [info]: kb/s:9341.07
---[Information] [27.09.2018 18:44:17] encoded 167938 frames, 4.32 fps, 9341.07 kb/s
General
Unique ID : 262657256960017415841322925568454719117 (0xC599F297D045329A90CE04847286768D)
Complete name : C:\Фильмы\A.Prayer.Before.Dawn.2017.720p.BluRay.DD2.0.x264.-whip93.mkv
Format : Matroska
Format version : Version 4 / Version 2
File size : 8.71 GiB
Duration : 1 h 56 min
Overall bit rate mode : Variable
Overall bit rate : 10.7 Mb/s
Movie name : Бои без правил | A Prayer Before Dawn (2017) - Release by whip93
Encoded date : UTC 2018-09-29 07:27:47
Writing application : mkvmerge v27.0.0 ('Metropolis') 64-bit
Writing library : libebml v1.3.6 + libmatroska v1.4.9
Video
ID : 1
Format : AVC
Format/Info : Advanced Video Codec
Format profile : High@L4.1
Format settings : CABAC / 12 Ref Frames
Format settings, CABAC : Yes
Format settings, ReFrames : 12 frames
Codec ID : V_MPEG4/ISO/AVC
Duration : 1 h 56 min
Bit rate : 9 341 kb/s
Width : 1 280 pixels
Height : 536 pixels
Display aspect ratio : 2.40:1
Frame rate mode : Constant
Frame rate : 23.976 (24000/1001) FPS
Color space : YUV
Chroma subsampling : 4:2:0
Bit depth : 8 bits
Scan type : Progressive
Bits/(Pixel*Frame) : 0.568
Stream size : 7.62 GiB (87%)
Title : Encoded by whip93
Writing library : x264 core 157 r2932 303c484
Encoding settings : cabac=1 / ref=12 / deblock=1:-3:-3 / analyse=0x3:0x133 / me=umh / subme=11 / psy=1 / psy_rd=1.00:0.08 / mixed_ref=0 / me_range=48 / chroma_me=1 / trellis=2 / 8x8dct=1 / cqm=0 / deadzone=21,11 / fast_pskip=1 / chroma_qp_offset=-3 / threads=12 / lookahead_threads=3 / sliced_threads=0 / nr=0 / decimate=1 / interlaced=0 / bluray_compat=0 / constrained_intra=0 / bframes=14 / b_pyramid=2 / b_adapt=2 / b_bias=0 / direct=1 / weightb=1 / open_gop=0 / weightp=2 / keyint=240 / keyint_min=23 / scenecut=40 / intra_refresh=0 / rc_lookahead=90 / rc=crf / mbtree=0 / crf=17.0 / qcomp=0.72 / qpmin=0 / qpmax=69 / qpstep=4 / vbv_maxrate=62500 / vbv_bufsize=78125 / crf_max=0.0 / nal_hrd=none / filler=0 / ip_ratio=1.40 / pb_ratio=1.30 / aq=3:0.80
Language : English
Default : Yes
Forced : No
Color range : Limited
Color primaries : BT.709
Transfer characteristics : BT.709
Matrix coefficients : BT.709
Audio #1
ID : 2
Format : AC-3
Format/Info : Audio Coding 3
Codec ID : A_AC3
Duration : 1 h 56 min
Bit rate mode : Constant
Bit rate : 192 kb/s
Channel(s) : 2 channels
Channel positions : Front: L R
Sampling rate : 48.0 kHz
Frame rate : 31.250 FPS (1536 SPF)
Bit depth : 16 bits
Compression mode : Lossy
Stream size : 160 MiB (2%)
Title : MVO (HDrezka)
Language : Russian
Service kind : Complete Main
Default : Yes
Forced : No
Audio #2
ID : 3
Format : AC-3
Format/Info : Audio Coding 3
Codec ID : A_AC3
Duration : 1 h 56 min
Bit rate mode : Constant
Bit rate : 640 kb/s
Channel(s) : 6 channels
Channel positions : Front: L C R, Side: L R, LFE
Sampling rate : 48.0 kHz
Frame rate : 31.250 FPS (1536 SPF)
Bit depth : 16 bits
Compression mode : Lossy
Stream size : 534 MiB (6%)
Title : Original
Language : Multiple languages
Service kind : Complete Main
Default : No
Forced : No
Audio #3
ID : 4
Format : FLAC
Format/Info : Free Lossless Audio Codec
Codec ID : A_FLAC
Duration : 1 h 56 min
Bit rate mode : Variable
Bit rate : 506 kb/s
Channel(s) : 2 channels
Channel positions : Front: L R
Sampling rate : 48.0 kHz
Frame rate : 11.719 FPS (4096 SPF)
Bit depth : 16 bits
Stream size : 422 MiB (5%)
Title : Original (from LPCM)
Writing library : libFLAC 1.3.0 (UTC 2013-05-26)
Language : Multiple languages
Default : No
Forced : No
Text #1
ID : 5
Format : UTF-8
Codec ID : S_TEXT/UTF8
Codec ID/Info : UTF-8 Plain Text
Duration : 1 h 50 min
Bit rate : 17 b/s
Count of elements : 373
Stream size : 14.2 KiB (0%)
Title : Full
Language : Russian
Default : No
Forced : No
Text #2
ID : 6
Format : UTF-8
Codec ID : S_TEXT/UTF8
Codec ID/Info : UTF-8 Plain Text
Duration : 1 h 50 min
Bit rate : 15 b/s
Count of elements : 530
Stream size : 12.9 KiB (0%)
Title : Original (SDH)
Language : English
Default : No
Forced : No
Menu
00:00:00.000 : en:Chapter 1
00:09:36.200 : en:Chapter 2
00:18:15.135 : en:Chapter 3
00:27:09.127 : en:Chapter 4
00:37:21.030 : en:Chapter 5
00:48:31.241 : en:Chapter 6
01:01:07.246 : en:Chapter 7
01:10:45.324 : en:Chapter 8
01:21:01.022 : en:Chapter 9
01:34:04.638 : en:Chapter 10
01:44:58.125 : en:Chapter 11
01:53:27.133 : en:Chapter 12

Скриншоты

-
[cybertorrent.ru].t56914.torrent 
Торрент: Зарегистрирован [ 2018-10-02 15:30 ] · D9B6001FEC3CADE0176DB1763C38E207BE735648

Скачать .torrent

Скачать

44 KB

Статус: проверено
Скачан: 0 раз
Размер: 8,71 GB
terms.php
[Профиль] [ЛС]
Показать сообщения:    
Ответить на тему

Текущее время: 17-Фев 08:31

Часовой пояс: UTC + 3



Вы не можете начинать темы
Вы не можете отвечать на сообщения
Вы не можете редактировать свои сообщения
Вы не можете удалять свои сообщения
Вы не можете голосовать в опросах
Вы не можете прикреплять файлы к сообщениям
Вы можете скачивать файлы