BitTorrent клиенты



Зловещая тайна / Noir enigma (Манюэль Бурсинак / Manuel Boursinhac) [2017, Франция, детектив, драма, экранизация, DVB] VO (Олег Воротилин) + Sub Rus + Original Fra

Ответить на тему
Статистика раздачи
Размер:  2,38 GB   |    Зарегистрирован:  4 месяца 19 дней   |    Скачан:  0 раз

Полного источника не было: Никогда

 
   
 
 
Автор Сообщение

RealMan ®

Пол: Не указан

Стаж: 1 год

Сообщений: 1400

Создавать темы 02-Окт-2018 15:28

[Цитировать]

Зловещая тайна / Noir enigma
Страна: Франция
Жанр: детектив, драма, экранизация
Год выпуска: 2017
Продолжительность: 01:37:43
Перевод: Одноголосый закадровый Олег Воротилин по субтитрам М.Лабори, ECLAIR
Субтитры: русские, английские, французские, французские-телетекст, немецкие, нидерландские, румынские, испанские.
Оригинальная аудиодорожка: французский
Режиссер: Манюэль Бурсинак / Manuel Boursinhac
В ролях: Патрик Шене / Patrick Chesnais (Commissaire Rousseau), Камиль Панонакль / Camille Panonacle (Mariella de Luca), Андреа Ферреоль / Andrea Ferreol (Albina Destouches), Рюфюс / Rufus (Roger Baudouin), Жан-Мишель Фет / Jean-Michel Fete (Alexandre de Montalembert), Жан Вока / Jean Vocat (Jerome Laurain)
Описание: по роману Жильды Пьерсанти / Gilda Piersanti "Римская загадка / Roma enigma" (2010).
Молодая студентка была застрелена на пороге известной кондитерской. Ни оружия, ни подозреваемого, ничто в жизни и в прошлом жертвы не дает ни малейшей подсказки. Совершенное преступление? Параллельно комиссар Руссо продолжает расследовать исчезновение своего сына...
Доп. информация: Hot Bird (13.0°E) TV5MONDE Europe DVB-S
Четвертый фильм о комиссаре Руссо и майоре де Лука:
1. Красная зима / Hiver rouge (2012)
2. Тайна катакомб / Bleu catacombes (2013)
3. Желтый ирис / Jaune Iris (2015)
При озвучке слово "менты" заменил на "копы", хотя, возможно было бы уместнее "флики" или "ажаны".
Сэмпл: https://yadi.sk/i/7AoqB549o8tWvw
Качество видео: DVB
Формат видео: MKV
Видео: MPEG Video 2, 720x576@1024x576 (16:9), 25 fps, 3036 kbps avg, 0.293 bit/pixel
Аудио 1: AC-3, 2 ch, 48 kHz, 192 kbps - русский
Аудио 2: MPEG Audio 2, 2 ch, 48 kHz, 192 kbps - французский
Формат субтитров: softsub (SRT)

MediaInfo

Общее
Уникальный идентификатор : 201786388892615157833044181763207654811 (0x97CEA5167320DDB29F0E2A64B90EED9B)
Полное имя : E:\Видео\Релизы\Зловещая тайна\[apreder]Noir_enigma(2017).mkv
Формат : Matroska
Версия формата : Version 2
Размер файла : 2,38 Гбайт
Продолжительность : 1 ч. 37 м.
Режим общего битрейта : Переменный
Общий поток : 3489 Кбит/сек
Название фильма : Noir enigma
Дата выпуска : 2017-10-20
Дата кодирования : UTC 2018-10-01 07:15:58
Программа кодирования : mkvmerge v4.1.1 ('Bouncin' Back') сборка от Jul 3 2010 22:54:08
Библиотека кодирования : libebml v1.0.0 + libmatroska v1.0.0
Обложка : Yes
Attachments : cover.jpg / small_cover.jpg
ACTOR : Patrick Chesnais, Camille Panonacle, Andrea Ferreol
DIRECTOR : Manuel Boursinhac
GENRE : Crime, Drama, Mystery
IMDB : tt6363668
KEYWORDS : rutracker.org
LAW_RATING : 16+
Видео
Идентификатор : 1
Формат : MPEG Video
Версия формата : Version 2
Профиль формата : Main@Main
Параметр BVOP формата : Да
Параметр матрицы формата : По умолчанию
Параметр GOP формата : M=4, N=12
Структура изображения : Frame
Идентификатор кодека : V_MPEG2
Идентификатор кодека/Информация : MPEG 1 or 2 Video
Продолжительность : 1 ч. 37 м.
Вид битрейта : Переменный
Битрейт : 3036 Кбит/сек
Максимальный битрейт : 15,0 Мбит/сек
Ширина : 720 пикселей
Высота : 576 пикселей
Соотношение сторон : 16:9
Описание активного формата : Letterbox 16:9 image
Режим частоты кадров : Постоянный
Частота кадров : 25,000 кадров/сек
Стандарт вещания : PAL
Цветовое пространство : YUV
Субдискретизация насыщенности : 4:2:0
Битовая глубина : 8 бит
Тип развёртки : Чересстрочная
Порядок развёртки : Верхнее поле первое
Метод сжатия : С потерями
Бит/(Пиксели*Кадры) : 0.293
Размер потока : 2,07 Гбайт (87%)
Default : Да
Forced : Нет
Аудио #1
Идентификатор : 2
Формат : AC-3
Формат/Информация : Audio Coding 3
Расширение режима : CM (complete main)
Параметр Endianness формата : Big
Режим смешивания : Header stripping
Идентификатор кодека : A_AC3
Продолжительность : 1 ч. 37 м.
Вид битрейта : Постоянный
Битрейт : 192 Кбит/сек
Каналы : 2 канала
Расположение каналов : Front: L R
Частота : 48,0 КГц
Частота кадров : 31,250 кадров/сек (1536 spf)
Битовая глубина : 16 бит
Метод сжатия : С потерями
Размер потока : 134 Мбайт (6%)
Заголовок : Олег Воротилин
Язык : Russian
Default : Да
Forced : Нет
Аудио #2
Идентификатор : 3
Формат : MPEG Audio
Версия формата : Version 1
Профиль формата : Layer 2
Режим : Joint stereo
Расширение режима : Intensity Stereo + MS Stereo
Режим смешивания : Header stripping
Идентификатор кодека : A_MPEG/L2
Идентификатор кодека/Подсказка : MP2
Продолжительность : 1 ч. 37 м.
Вид битрейта : Постоянный
Битрейт : 192 Кбит/сек
Каналы : 2 канала
Частота : 48,0 КГц
Метод сжатия : С потерями
Размер потока : 134 Мбайт (6%)
Язык : French
Default : Нет
Forced : Нет
Текст #1
Идентификатор : 4
Формат : UTF-8
Идентификатор кодека : S_TEXT/UTF8
Идентификатор кодека/Информация : UTF-8 Plain Text
Язык : Russian
Default : Нет
Forced : Нет
Текст #2
Идентификатор : 5
Формат : UTF-8
Идентификатор кодека : S_TEXT/UTF8
Идентификатор кодека/Информация : UTF-8 Plain Text
Язык : English
Default : Нет
Forced : Нет
Текст #3
Идентификатор : 6
Формат : UTF-8
Идентификатор кодека : S_TEXT/UTF8
Идентификатор кодека/Информация : UTF-8 Plain Text
Язык : French
Default : Нет
Forced : Нет
Текст #4
Идентификатор : 7
Формат : UTF-8
Идентификатор кодека : S_TEXT/UTF8
Идентификатор кодека/Информация : UTF-8 Plain Text
Заголовок : Teletexte
Язык : French
Default : Нет
Forced : Нет
Текст #5
Идентификатор : 8
Формат : UTF-8
Идентификатор кодека : S_TEXT/UTF8
Идентификатор кодека/Информация : UTF-8 Plain Text
Язык : German
Default : Нет
Forced : Нет
Текст #6
Идентификатор : 9
Формат : UTF-8
Идентификатор кодека : S_TEXT/UTF8
Идентификатор кодека/Информация : UTF-8 Plain Text
Язык : Dutch
Default : Нет
Forced : Нет
Текст #7
Идентификатор : 10
Формат : UTF-8
Идентификатор кодека : S_TEXT/UTF8
Идентификатор кодека/Информация : UTF-8 Plain Text
Язык : rom
Default : Нет
Forced : Нет
Текст #8
Идентификатор : 11
Формат : UTF-8
Идентификатор кодека : S_TEXT/UTF8
Идентификатор кодека/Информация : UTF-8 Plain Text
Язык : Spanish
Default : Нет
Forced : Нет

Скриншот c названием фильма

Скриншоты




Исходник:
[cybertorrent.ru].t56952.torrent 
Торрент: Зарегистрирован [ 2018-10-02 15:30 ] · 36D151A12D03AC2040A297D2A9E2FE6623EF6181

Скачать .torrent

Скачать

12 KB

Статус: проверено
Скачан: 0 раз
Размер: 2,38 GB
terms.php
[Профиль] [ЛС]
Показать сообщения:    
Ответить на тему

Текущее время: 22-Фев 02:57

Часовой пояс: UTC + 3



Вы не можете начинать темы
Вы не можете отвечать на сообщения
Вы не можете редактировать свои сообщения
Вы не можете удалять свои сообщения
Вы не можете голосовать в опросах
Вы не можете прикреплять файлы к сообщениям
Вы можете скачивать файлы