Статистика раздачи
Размер:  1,37 GB   |    Зарегистрирован:  3 месяца 9 дней   |    Скачан:  0 раз

Полного источника не было: Никогда

 
   
 
 

lopster ®

Пол:
Не указан
Стаж:
3 месяца 9 дней
Сообщений:
612

Лилии для Лилии
Год выпуска: 2007
Жанр: Мелодрама
Продолжительность: 01:39:44
Режиссер: Вадим Островский
В ролях: Елена Яковлева, Альберт Филозов, Екатерина Васильева, Петр Семак, Дарья Лузина, Артем Мазунов, Яна Есипович, Галина Петрова, Анна Зайцева, Елена Подкаминская, Сергей Климов, Любовь Шевцова, Влада Макейчик, Алексей Гуськов
Описание: Врач Лиля и ее муж Ленчик уже давно живут в разных комнатах и существуют скорее как соседи. Утром в день своего пятидесятилетия Лилек получает подарок: посыльный доставляет корзину прекрасных белых лилий. Именинница вспоминает своих бывших мужчин - тех, кто ее любил, и тех, от кого она отказывалась. Лилек жалеет только о том, что у нее нет детей. Так кто же этот таинственный поклонник, подаривший чудесные цветы?
Все раздачи фильма: Лилии для Лилии
Качество: SATRip
Формат: AVI
Видео кодек: DivX
Аудио кодек: MPEG Audio
Видео: DivX 5 720x512 25.00fps 1827Kbps
Аудио: MPEG Audio Layer 3 48000Hz stereo 128Kbps

MI

Код:Общее
Полное имя : C:\otkat\Видео\Лилии для Лилии\Lilii.dlya.Lilii.2007.DivX.SATRip_[torrents.ru].avi
Формат : AVI
Формат/Информация : Audio Video Interleave
Размер файла : 1,37 Гбайт
Продолжительность : 1 ч. 39 м.
Общий поток : 1965 Кбит/сек
Программа кодирования : FairUse Wizard - http://fairusewizard.com
Библиотека кодирования : The best and REALLY easy backup tool
Видео
Идентификатор : 0
Формат : MPEG-4 Visual
Параметр BVOP формата : 1
Параметр QPel формата : Нет
Параметр GMC формата : Без точки перехода
Параметр матрицы формата : Default (H.263)
Режим смешивания : Сжатый битовый поток
Идентификатор кодека : DX50
Идентификатор кодека/Подсказка : DivX 5
Продолжительность : 1 ч. 39 м.
Битрейт : 1827 Кбит/сек
Ширина : 720 пикселей
Высота : 512 пикселей
Соотношение сторон : 1,406
Частота кадров : 25,000 кадров/сек
Цветовое пространство : YUV
Субдискретизация насыщенности : 4:2:0
Битовая глубина : 8 бит
Тип развёртки : Прогрессивная
Метод сжатия : С потерями
Бит/(Пиксели*Кадры) : 0.198
Размер потока : 1,27 Гбайт (93%)
Библиотека кодирования : DivX 6.2.5 (UTC 2006-07)
Аудио
Идентификатор : 1
Формат : MPEG Audio
Версия формата : Version 1
Профиль формата : Layer 3
Режим : Joint stereo
Расширение режима : MS Stereo
Идентификатор кодека : 55
Идентификатор кодека/Подсказка : MP3
Продолжительность : 1 ч. 39 м.
Вид битрейта : Постоянный
Битрейт : 128 Кбит/сек
Каналы : 2 канала
Частота : 48,0 КГц
Метод сжатия : С потерями
Размер потока : 91,3 Мбайт (7%)
Выравнивание : Соединение по промежуткам
Продолжительность промежутка : 40 мс. (1,00 видеокадр)
Время предзагрузки промежутка : 504 мс.
Библиотека кодирования : LAME3.97b
Настройки программы : -m j -V 4 -q 2 -lowpass 17 -b 128

Скриншоты

[cybertorrent.ru].t57.torrent 
Торрент: Зарегистрирован [ 2018-02-15 13:57 ] · ABAF1A66EE09CB1494E35D7BBC37B21F2F339EBC

Скачать .torrent

Скачать

14 KB

Статус: проверено
Скачан: 0 раз
Размер: 1,37 GB
Профиль [ЛС]
Показать сообщения:    

Текущее время: 25-Май 09:08

Часовой пояс: UTC ± 0



Вы не можете начинать темы
Вы не можете отвечать на сообщения
Вы не можете редактировать свои сообщения
Вы не можете удалять свои сообщения
Вы не можете голосовать в опросах
Вы не можете прикреплять файлы к сообщениям
Вы можете скачивать файлы