BitTorrent клиенты



Пьер Броссолетт, или Пассажиры Луны / Pierre Brossolette ou les passagers de la lune (Колин Серро / Coline Serreau) [2015, Франция, историческая драма, экранизация, DVB] Original (Fra) + Sub (Rus, Eng, Fra, Deu)

Ответить на тему
Статистика раздачи
Размер:  2,11 GB   |    Зарегистрирован:  4 месяца 13 дней   |    Скачан:  0 раз

Полного источника не было: Никогда

 
   
 
 
Автор Сообщение

GEEP ®

Пол: Не указан

Стаж: 1 год

Сообщений: 866

Создавать темы 03-Окт-2018 16:54

[Цитировать]

Пьер Броссолетт, или Пассажиры Луны
Pierre Brossolette ou les passagers de la lune- Страна: Франция
Жанр: историческая драма, экранизация
Год выпуска: 2015
Продолжительность: 01:31:26
Перевод: Субтитры (перевод М.Кузиной, Éclair Media)
Субтитры: русские, английские, французские, французские-телетекст, немецкие, нидерландские, румынские, испанские
Оригинальная аудиодорожка: французский
Режиссер: Колин Серро / Coline SerreauВ ролях: Жюльен Баумгартнер / Julien Baumgartner (Pierre Brossolette), Леа Дрюкер / Léa Drucker (Gilberte), Шарль Пети / Charles Petit (Passy), Франсуа Феролето / François Feroleto (Forest Yeo-Thomas), Эрик Наггар / Éric Naggar (Préfet Bollaert), Виктор Килишини / Victor Quilichini (Claude), Бернар Алан / Bernard Alane (Général de Gaulle), Фредерик Созе / Frédéric Sauzay (Colonel Rémy), Жанна Атье / Jeanne Hatier (Anne), Джо Шеридан / Joe Sheridan (Churchill), Кентен Байо / Quentin Baillot (Jean Moulin), Йоханнес Оливер Хамм / Johannes Oliver Hamm (Gestapiste - Hermann)Описание: Адаптация книги Эрика Русселя / Éric Roussel "Пьер Броссолетт / Pierre Brossolette" (2011). Автор сценария Дидье Декуан / Didier Decoin. Композитор Брюно Куле / Bruno Coulais.
Биография Пьера Броссолетта, талантливого студента, журналиста-мечтателя, активного политика и ярого защитника прав человека. Во время Второй мировой войны в интеллектуале проснулся боец, активный участвовавший в движении Сопротивления. Арестованный немцами в начале 1944 года, он покончил жизнь самоубийством в возрасте 40 лет. После нескольких дней беспрерывных пыток Пьер Броссолетт выбросился с пятого этажа тюрьмы в Ренне, боясь не выдержать новых страданий и заговорить.
Доп. информация: Hot Bird (13.0°E) TV5MONDE Europe DVB-S
Качество видео: DVB
Формат видео: MKV
Видео: MPEG Video 2, 720x576@1024x576 (16:9), 25 fps, ~3040 kbps avg, 0.293 bit/pixel
Аудио: MPEG Audio 2, 2 ch, 48 kHz, 192 kbps - французский
Формат субтитров: softsub (SRT)

Пример субтитров

1
00:00:08,044 --> 00:00:09,044
Ты не успел подготовиться?
2
00:00:08,679 --> 00:00:11,554
Конечно, успел.
3
00:00:11,559 --> 00:00:14,434
ПЬЕР БРОССОЛЕТТ
4
00:00:25,825 --> 00:00:33,160
Экзамен на степень агреже
в области истории - Париж, 1925 г.
5
00:00:33,160 --> 00:00:34,963
Уважаемые дамы и господа!
6
00:00:34,963 --> 00:00:37,155
Я внимательно
и увлеченно готовился
7
00:00:37,155 --> 00:00:39,323
к этому экзамену.
8
00:00:39,323 --> 00:00:44,168
Я закончил Высшую нормальную
школу с красным дипломом.
9
00:00:44,168 --> 00:00:48,562
Я не смогу более 7 минут
говорить на тему,
10
00:00:48,562 --> 00:00:50,279
которая мне досталась -
11
00:00:50,279 --> 00:00:58,279
"Каролингские аббатства
в эпоху Людовика Благочестивого".
12
00:01:00,038 --> 00:01:04,163
Аббатства в Средние века.
13
00:01:06,475 --> 00:01:11,002
Уважаемые дамы и господа!
Я говорил в течение 7 минут.
14
00:01:11,002 --> 00:01:15,502
Спасибо, что выслушали меня.
15
00:01:23,363 --> 00:01:26,166
Тебе дали степень агреже.
Ты занял 2 место!
16
00:01:26,166 --> 00:01:28,605
С нормальной темой
занял бы первое.
17
00:01:28,605 --> 00:01:30,598
Пьер, не огорчайся.
Второе место!
18
00:01:30,598 --> 00:01:34,795
Они оценили тебя по заслугам.
Ты, наконец-то, начнешь зарабатывать.
19
00:01:34,795 --> 00:01:40,170
И мы поедем отдыхать,
моя любимая!
20
00:01:41,119 --> 00:01:44,637
В 1938 г., нарушив
все европейские соглашения,

MediaInfo

General
Unique ID : 54078767819197844177110741991885978383 (0x28AF311BC2ED0887D230BACAD0B93B0F)
Complete name : [apreder]Pierre_Brossolette_ou_les_passagers_de_la_lune(2015)DVB.mkv
Format : Matroska
Format version : Version 2
File size : 2.11 GiB
Duration : 1 h 31 min
Overall bit rate mode : Variable
Overall bit rate : 3 298 kb/s
Movie name : Pierre Brossolette ou les passagers de la lune
Released date : 2015-05-26
Encoded date : UTC 2018-09-30 11:36:28
Writing application : mkvmerge v27.0.0 ('Metropolis') 64-bit
Writing library : libebml v1.3.6 + libmatroska v1.4.9
Cover : Yes
Attachments : cover.jpg / small_cover.jpg
ACTOR : Julien Baumgartner, Léa Drucker, Charles Petit
DIRECTOR : Coline Serreau
GENRE : Drama , History
IMDB : tt4684508
KEYWORDS : rutracker.org
LAW_RATING : 16+
Video
ID : 1
Format : MPEG Video
Format version : Version 2
Format profile : Main@Main
Format settings : CustomMatrix / BVOP
Format settings, BVOP : Yes
Format settings, Matrix : Custom
Format settings, GOP : M=4, N=12
Format settings, picture structure : Frame
Codec ID : V_MPEG2
Codec ID/Info : MPEG 1 or 2 Video
Duration : 1 h 31 min
Bit rate mode : Variable
Bit rate : 3 040 kb/s
Maximum bit rate : 15.0 Mb/s
Width : 720 pixels
Height : 576 pixels
Display aspect ratio : 16:9
Active Format Description : Letterbox 16:9 image
Frame rate mode : Constant
Frame rate : 25.000 FPS
Standard : PAL
Color space : YUV
Chroma subsampling : 4:2:0
Bit depth : 8 bits
Scan type : Interlaced
Scan order : Top Field First
Compression mode : Lossy
Bits/(Pixel*Frame) : 0.293
Stream size : 1.94 GiB (92%)
Default : Yes
Forced : No
Audio
ID : 2
Format : MPEG Audio
Format version : Version 1
Format profile : Layer 2
Format settings : Joint stereo / Intensity Stereo + MS Stereo
Codec ID : A_MPEG/L2
Codec ID/Hint : MP2
Duration : 1 h 31 min
Bit rate mode : Constant
Bit rate : 192 kb/s
Channel(s) : 2 channels
Sampling rate : 48.0 kHz
Compression mode : Lossy
Stream size : 126 MiB (6%)
Language : French
Default : Yes
Forced : No
Text #1
ID : 3
Format : UTF-8
Codec ID : S_TEXT/UTF8
Codec ID/Info : UTF-8 Plain Text
Language : Russian
Default : No
Forced : No
Text #2
ID : 4
Format : UTF-8
Codec ID : S_TEXT/UTF8
Codec ID/Info : UTF-8 Plain Text
Language : English
Default : No
Forced : No
Text #3
ID : 5
Format : UTF-8
Codec ID : S_TEXT/UTF8
Codec ID/Info : UTF-8 Plain Text
Language : French
Default : No
Forced : No
Text #4
ID : 6
Format : UTF-8
Codec ID : S_TEXT/UTF8
Codec ID/Info : UTF-8 Plain Text
Title : Teletexte
Language : French
Default : No
Forced : No
Text #5
ID : 7
Format : UTF-8
Codec ID : S_TEXT/UTF8
Codec ID/Info : UTF-8 Plain Text
Language : German
Default : No
Forced : No
Text #6
ID : 8
Format : UTF-8
Codec ID : S_TEXT/UTF8
Codec ID/Info : UTF-8 Plain Text
Language : Dutch
Default : No
Forced : No
Text #7
ID : 9
Format : UTF-8
Codec ID : S_TEXT/UTF8
Codec ID/Info : UTF-8 Plain Text
Language : rom
Default : No
Forced : No
Text #8
ID : 10
Format : UTF-8
Codec ID : S_TEXT/UTF8
Codec ID/Info : UTF-8 Plain Text
Language : Spanish
Default : No
Forced : No

Скриншот c названием фильма

Скриншоты


Резервные скриншоты


- [2'975]
[cybertorrent.ru].t57043.torrent 
Торрент: Зарегистрирован [ 2018-10-03 16:55 ] · D42F68C17458DF204F24C69398C8FBE6B7AB1092

Скачать .torrent

Скачать

22 KB

Статус: проверено
Скачан: 0 раз
Размер: 2,11 GB
terms.php
[Профиль] [ЛС]
Показать сообщения:    
Ответить на тему

Текущее время: 17-Фев 08:55

Часовой пояс: UTC + 3



Вы не можете начинать темы
Вы не можете отвечать на сообщения
Вы не можете редактировать свои сообщения
Вы не можете удалять свои сообщения
Вы не можете голосовать в опросах
Вы не можете прикреплять файлы к сообщениям
Вы можете скачивать файлы