Статистика раздачи
Размер:  7,25 GB   |    Зарегистрирован:  4 дня   |    Скачан:  0 раз

Полного источника не было: Никогда

 
   
 
 

koljan ®

Пол:
Не указан
Стаж:
5 месяцев
Сообщений:
295

ВремяПриключений | Пора Приключений
Adventure Time with Finn & Jake
-Сезон 9Серии: 1-26 из ??- Страна: США
Производство: Cartoon Network
Жанр: Мультфильм, фэнтези, комедия, приключения
Продолжительность: 00:11:00
Года выпуска: 2017-2018
Перевод:

  • Профессиональный (полное дублирование) | Cartoon Network | 2-14,16,18, 23-26 эпизоды
  • Любительский (двухголосый закадровый) | Т.О Друзей
  • Оригинальная звуковая дорожка (English)
    Русские субтитры: есть
    Английские субтитры: есть-Режиссёр: Ларри Лэйчлитер / Larry Leichliter-Сериал повествует о необыкновенных и весёлых приключениях двух лучших друзей: мальчика Финна и его собаки Джейка. Действие сериала происходит в волшебной стране Ууу. Финн — 13-летний мальчик, который обожает путешествовать и спасать принцесс из лап ужасных монстров и злодеев, населяющих Землю Ууу. Джейк — лучший друг Финна. Это волшебная собака со способностью растягивать своё тело до практически любых размеров и форм. Джейку 28 лет и он исполняет роль эдакого приятеля-наставника Финна, а его волшебные способности помогают мальчику в его борьбе со злом.
    - -Благодарности: Большое спасибо за предоставленный дубляж dnnhmnctd и Admiral KruzenshterN-Все раздачи мультсериала-Качество: WEB-DL 1080p
    Формат: MKV
    Видео: 1920x1080 (16:9) at 23.976 fps, High@L4.0, ~5000 kbps avg, ~0.101bpp | 1-9 эпизоды
    Видео: 1920x1080 (16:9) at 23.976 fps, High@L4.0, ~2000 kbps avg, ~0.041bpp | 10-... эпизоды
    Аудио:
  • Russian: 48 kHz, AC3 Dolby Digital, 2 ch, ~192 kbps | Cartoon Network| 2-14,16,18,23-26 эпизоды
  • Russian: 48 kHz, AC3 Dolby Digital, 2 ch, ~192 kbps | Т.О Друзей
  • English: 48 kHz, AAC Dolby Digital, 2 ch, ~160 kbps
    Субтитры: Russian (by Tanis, *.ass), Russian (by J-sUn, *.ass), English (*.srt)
    -

    Подробные технические данные

    General
    Unique ID : 203372615995979672183403306453822238169 (0x9900241F3A6223C58AB6AE5A732E6DD9)
    Complete name : \Adventure Time With Finn And Jake - Season 9\Adventure.Time.S09E02E03.Elements.1.Skyhooks.-.Elements.2.Bespoken.For.1080p.WEB-DL.Dub.TODruzey.Eng.Sub.mkv
    Format : Matroska
    Format version : Version 4 / Version 2
    File size : 902 MiB
    Duration : 22 min 16 s
    Overall bit rate : 5 659 kb/s
    Movie name : Elements Part 1: Skyhooks / Elements Part 2: Bespoken For
    Encoded date : UTC 2017-08-21 09:37:19
    Writing application : mkvmerge v15.0.0 ('Duel with the Devil') 64-bit
    Writing library : libebml v1.3.5 + libmatroska v1.4.5
    Attachments : Median Subtitles.ttf / poster.jpg
    Video
    ID : 1
    Format : AVC
    Format/Info : Advanced Video Codec
    Format profile : High@L4
    Format settings, CABAC : Yes
    Format settings, ReFrames : 4 frames
    Format settings, GOP : N=1
    Codec ID : V_MPEG4/ISO/AVC
    Duration : 22 min 16 s
    Bit rate : 5 139 kb/s
    Width : 1 920 pixels
    Height : 1 080 pixels
    Display aspect ratio : 16:9
    Frame rate mode : Constant
    Frame rate : 23.976 FPS
    Color space : YUV
    Chroma subsampling : 4:2:0
    Bit depth : 8 bits
    Scan type : Progressive
    Bits/(Pixel*Frame) : 0.103
    Stream size : 819 MiB (91%)
    Title : Adventure.Time.S09E02E03.Elements.1.Skyhooks.-.Elements.2.Bespoken.For
    Language : English
    Default : Yes
    Forced : No
    Color range : Limited
    Color primaries : BT.709
    Transfer characteristics : BT.709
    Matrix coefficients : BT.709
    Audio #1
    ID : 2
    Format : AC-3
    Format/Info : Audio Coding 3
    Mode extension : CM (complete main)
    Format settings, Endianness : Big
    Codec ID : A_AC3
    Duration : 22 min 16 s
    Bit rate mode : Constant
    Bit rate : 192 kb/s
    Channel(s) : 2 channels
    Channel positions : Front: L R
    Sampling rate : 48.0 kHz
    Frame rate : 31.250 FPS (1536 spf)
    Bit depth : 16 bits
    Compression mode : Lossy
    Stream size : 30.6 MiB (3%)
    Title : 48 kHz, AC3 Dolby Digital, 2 ch, ~192 kbps [Dub Cartoon Network]
    Language : Russian
    Default : Yes
    Forced : No
    Audio #2
    ID : 3
    Format : AC-3
    Format/Info : Audio Coding 3
    Mode extension : CM (complete main)
    Format settings, Endianness : Big
    Codec ID : A_AC3
    Duration : 22 min 16 s
    Bit rate mode : Constant
    Bit rate : 192 kb/s
    Channel(s) : 2 channels
    Channel positions : Front: L R
    Sampling rate : 48.0 kHz
    Frame rate : 31.250 FPS (1536 spf)
    Bit depth : 16 bits
    Compression mode : Lossy
    Stream size : 30.6 MiB (3%)
    Title : 48 kHz, AC3 Dolby Digital, 2 ch, ~192 kbps [AVO Т.О Друзей]
    Language : Russian
    Default : No
    Forced : No
    Audio #3
    ID : 4
    Format : AAC
    Format/Info : Advanced Audio Codec
    Format profile : LC
    Codec ID : A_AAC
    Duration : 22 min 16 s
    Bit rate : 124 kb/s
    Channel(s) : 2 channels
    Channel positions : Front: L R
    Sampling rate : 48.0 kHz
    Frame rate : 46.875 FPS (1024 spf)
    Compression mode : Lossy
    Stream size : 19.8 MiB (2%)
    Title : 48 kHz, AAC Dolby Digital, 2 ch, ~160 kbps
    Language : English
    Default : No
    Forced : No
    Text #1
    ID : 5
    Format : ASS
    Codec ID : S_TEXT/ASS
    Codec ID/Info : Advanced Sub Station Alpha
    Duration : 21 min 54 s
    Bit rate : 36 b/s
    Count of elements : 58
    Compression mode : Lossless
    Stream size : 5.87 KiB (0%)
    Title : forced
    Language : Russian
    Default : Yes
    Forced : Yes
    Text #2
    ID : 6
    Format : ASS
    Codec ID : S_TEXT/ASS
    Codec ID/Info : Advanced Sub Station Alpha
    Duration : 21 min 54 s
    Bit rate : 220 b/s
    Count of elements : 509
    Compression mode : Lossless
    Stream size : 35.3 KiB (0%)
    Title : Tanis
    Language : Russian
    Default : No
    Forced : No
    Text #3
    ID : 7
    Format : ASS
    Codec ID : S_TEXT/ASS
    Codec ID/Info : Advanced Sub Station Alpha
    Duration : 21 min 54 s
    Bit rate : 220 b/s
    Count of elements : 509
    Compression mode : Lossless
    Stream size : 35.3 KiB (0%)
    Title : Median sub, Tanis
    Language : Russian
    Default : No
    Forced : No
    Text #4
    ID : 8
    Format : ASS
    Codec ID : S_TEXT/ASS
    Codec ID/Info : Advanced Sub Station Alpha
    Duration : 21 min 42 s
    Bit rate : 174 b/s
    Count of elements : 341
    Compression mode : Lossless
    Stream size : 27.8 KiB (0%)
    Title : J-sUn (T.O. Друзей)
    Language : Russian
    Default : No
    Forced : No
    Text #5
    ID : 9
    Format : UTF-8
    Codec ID : S_TEXT/UTF8
    Codec ID/Info : UTF-8 Plain Text
    Duration : 22 min 11 s
    Bit rate : 115 b/s
    Count of elements : 509
    Stream size : 18.8 KiB (0%)
    Language : English
    Default : No
    Forced : No
    Menu
    00:00:00.000 : en:Intro
    00:00:26.193 : en:Elements Part 1: Skyhooks
    00:11:06.207 : en:Outro
    00:11:17.568 : en:Elements Part 2: Bespoken For
    00:21:58.124 : en:Outro

    Скриншоты

    (Полноразмерные скриншоты открываются кликом по миниатюре)

    Список серий

  • 01. Сфера / Orb
  • 02a. Элементы 1: Небесные крючья / Elements Part 1: Skyhooks
  • 02b. Элементы 2: Индивидуальный Пошив / Elements Part 2: Bespoken For
  • 03a. Элементы 3: Ледяной свет / Elements Part 3: Winter Light
  • 03b. Элементы 4: Облачко / Elements Part 4: Cloudy
  • 04a. Элементы 5: Слизь во все поля / Elements Part 5: Slime Central
  • 04b. Элементы 6: Счастливая воительница / Elements Part 6: Happy Warrior
  • 05a. Элементы 7: Сердце героя / Elements Part 7: Hero Heart
  • 05b. Элементы 8: Небесные крючья 2 / Elements Part 8: Skyhooks II
  • 06a. Абстракность / Abstract
  • 06b. Кетчуп / Ketchup
  • 07a. Фиона и Кейк и Фиона / Fionna and Cake and Fionna
  • 07b. Шёпот / Whispers
  • 08. Три ведра / Three Buckets
  • 09a. Дикая охота / The Wild Hunt
  • 09b. Всегда заключай сделку / Always BMO Closing
  • 10a. Сын Рэп-медведя / Son of Rap Bear
  • 10b. Боннибелл Баблгам / Bonnibel Bubblegum
  • 11a. Семнадцатилетие / Seventeen
  • 11b. Огненное кольцо / Ring of Fire
  • 12a. Марси и Хансон / Marcy & Hunson
  • 12b. Первое расследование / The First Investigation
  • 13a. Бленаны / Blenanas
  • 13b. Джейк, Дитя Звёзд / Jake the Starchild
  • 14a. Храм Марса / Temple of Mars
  • 14b. Гумбольдия / Gumbaldia
  • -
    [cybertorrent.ru].t57050.torrent 
    Торрент: Зарегистрирован [ 2018-07-12 00:16 ] · 277878AD97694EC8DD63FA3C2206ACBB651806EB

    Скачать .torrent

    Скачать

    20 KB

    Статус: проверено
    Скачан: 0 раз
    Размер: 7,25 GB
    Профиль [ЛС]
    Показать сообщения:    

    Текущее время: 16-Июл 07:01

    Часовой пояс: UTC ± 0



    Вы не можете начинать темы
    Вы не можете отвечать на сообщения
    Вы не можете редактировать свои сообщения
    Вы не можете удалять свои сообщения
    Вы не можете голосовать в опросах
    Вы не можете прикреплять файлы к сообщениям
    Вы можете скачивать файлы