BitTorrent клиенты



Любовь по правилам... и без / Something's Gotta Give (Нэнси Мейерс / Nancy Meyers) [2003, США, комедия, мелодрама, VHSRip-AVC] [Fullscreen] Dub

Ответить на тему
 
Автор Сообщение

Angel ®

Пол: Не указан

Стаж: 1 год

Сообщений: 1346

Создавать темы 04-Фев-2018 02:59

[Цитировать]

Любовь по правилам... и без / Something's Gotta Give [Fullscreen]- Страна: США
Жанр: комедия, мелодрама
Год выпуска: 2003
Продолжительность: 02:03:09-Перевод: Профессиональный (дублированный)
Субтитры: нет-Режиссер: Нэнси Мейерс / Nancy Meyers
В ролях: Джек Николсон, Дайан Китон, Фрэнсис МакДорманд, Киану Ривз, Аманда Пит, Джон Фавро, Пол Майкл Глэйзер, Рэйчел Тикотин...- | Релиз: -Описание: Герой этой картины, Гарри Сэнборн (Джек Николсон), стареющий плейбой и вечный охотник за юбками с либидо, как у младого юноши, - попал "в переплет". Его очередной уик-энд с новой прелестной пассией Мэрин (Аманда Пит), сулящий массу изысканных и чувственных удовольствий, обернулся плачевно: старого ловеласа в самый неподходящий момент хватил сердечный приступ. Теперь еле передвигающийся Гарри становится вынужденным узником загородного дома матери Мэрин - известной нью-йоркской писательницы Эрики Барри (Дайэн Китон). Благодаря неожиданному стечению обстоятельств наш поддержанный герой-любовник впервые за много лет оказался один на один с привлекательной, разведенной женщиной своего возраста! И что самое интересное - ему это понравилось! Но в тот самый момент, когда наш бывалый Казанова стал испытывать к Эрике чуть больше, чем стандартный эротический интерес, за писательницей начинает ухаживать неотразимый молодой доктор (Киану Ривз). Теперь Гарри нужно действовать срочно и решительно, чтобы не потерять ту самую женщину!-Доп. информация: Личная оцифровка VHS производства "Інтер-Фільм", Україна.-Семпл: http://sendfile.su/1394712-Тип релиза: VHSRip-AVC
Контейнер: MKV
Видео: 698x572 (4:3) @ 746x572, 25.000 fps, AVC, ~4104 Kbps, 0.411 bits/pixel
Аудио: Русский, 48.0 KHz, AC3, 2 ch, 224 Kbps

MediaInfo

General
Unique ID : 242402691857233024008297419697025154312 (0xB65D0F6ED2F8D39498FFF81889837D08)
Complete name : Something's Gotta Give 2003 [Fullscreen] VHS.mkv
Format : Matroska
Format version : Version 4 / Version 2
File size : 3.80 GiB
Duration : 2 h 3 min
Overall bit rate : 4 416 kb/s
Encoded date : UTC 2018-01-28 10:51:08
Writing application : mkvmerge v8.3.0 ('Over the Horizon') 64bit
Writing library : libebml v1.3.1 + libmatroska v1.4.2
Video
ID : 1
Format : AVC
Format/Info : Advanced Video Codec
Format profile : High@L4.1
Format settings : CABAC / 16 Ref Frames
Format settings, CABAC : Yes
Format settings, RefFrames : 16 frames
Codec ID : V_MPEG4/ISO/AVC
Duration : 2 h 3 min
Bit rate : 4 104 kb/s
Width : 698 pixels
Height : 572 pixels
Display aspect ratio : 4:3
Frame rate mode : Constant
Frame rate : 25.000 FPS
Color space : YUV
Chroma subsampling : 4:2:0
Bit depth : 8 bits
Scan type : Progressive
Bits/(Pixel*Frame) : 0.411
Stream size : 3.53 GiB (93%)
Writing library : x264 core 152 r2851kMod ba24899
Encoding settings : cabac=1 / ref=16 / deblock=1:-3:-2 / analyse=0x3:0x133 / me=umh / subme=11 / psy=1 / fade_compensate=0.00 / psy_rd=1.00:0.00 / mixed_ref=1 / me_range=48 / chroma_me=1 / trellis=2 / 8x8dct=1 / cqm=0 / deadzone=21,11 / fast_pskip=0 / chroma_qp_offset=-2 / threads=12 / lookahead_threads=3 / sliced_threads=0 / nr=0 / decimate=1 / interlaced=0 / bluray_compat=0 / constrained_intra=0 / bframes=16 / b_pyramid=2 / b_adapt=2 / b_bias=0 / direct=3 / weightb=1 / open_gop=0 / weightp=0 / keyint=250 / keyint_min=25 / scenecut=40 / intra_refresh=0 / rc_lookahead=70 / rc=crf / mbtree=0 / crf=18.0000 / qcomp=0.60 / qpmin=0 / qpmax=69 / qpstep=4 / vbv_maxrate=50000 / vbv_bufsize=62500 / crf_max=0.0 / nal_hrd=none / filler=0 / ip_ratio=1.40 / pb_ratio=1.30 / aq=3:0.75
Default : Yes
Forced : No
Color range : Limited
Color primaries : BT.601 PAL
Transfer characteristics : BT.470 System B, BT.470 System G
Matrix coefficients : BT.470 System B, BT.470 System G
Audio
ID : 2
Format : AC-3
Format/Info : Audio Coding 3
Format settings, Endianness : Big
Codec ID : A_AC3
Duration : 2 h 3 min
Bit rate mode : Constant
Bit rate : 224 kb/s
Channel(s) : 2 channels
Channel positions : Front: L R
Sampling rate : 48.0 kHz
Frame rate : 31.250 FPS (1536 SPF)
Bit depth : 16 bits
Compression mode : Lossy
Stream size : 197 MiB (5%)
Language : Russian
Service kind : Complete Main
Default : Yes
Forced : No

Скриншоты

Fullscreen vs Widescreen

Fullscreen VHS

Widescreen DVD

Скан обложки VHS

[Профиль] [ЛС]
Показать сообщения:    
Ответить на тему

Текущее время: 20-Фев 00:07

Часовой пояс: UTC + 3



Вы не можете начинать темы
Вы не можете отвечать на сообщения
Вы не можете редактировать свои сообщения
Вы не можете удалять свои сообщения
Вы не можете голосовать в опросах
Вы не можете прикреплять файлы к сообщениям
Вы можете скачивать файлы