Статистика раздачи
Размер:  18,07 GB   |    Зарегистрирован:  2 месяца 11 дней   |    Скачан:  0 раз

Полного источника не было: Никогда

 
   
 
 

0H0 ®

Пол:
Не указан
Стаж:
7 месяцев 8 дней
Сообщений:
156

Черепашки ниндзя / Teenage Mutant Ninja Turtles
Страна: США
Жанр: мультфильм, фантастика, боевик, комедия, приключен
Продолжительность серии: 00:23:00
Год выпуска: 2015-2017
Перевод: Профессиональный (дублированный) - Nickelodeon
Русские субтитры: нет
Режиссёр: Майкл Чанг / Michael Chang
Роли озвучивали: Шон Эстин, Джейсон Биггз, Грег Сайпс, Роб Полсен, Хун Ли, Мэй Уитман, Нолан Норт, Кевин Майкл Ричардсон, Клэнси Браун, Брайан Блум
Описание: До недавнего времени Кренги считались самой большой угрозой для Земли и были главными врагами черепашек. Но объявились Трицератоны - раса самых злых пришельцев во вселенной, которые прилетели на Землю, чтобы покончить со своим старейшим врагом - Кренгами. Они применили генератор чёрных дыр, уничтожив при этом всё живое. Удалось спастись лишь команде черепашек, а также Кейси и Эйприл, которых загадочный робот Фугитойд отправил на свой космический корабль. Новый союзник наших героев когда-то был профессором Ханиккатом, но теперь заключён в тело андроида с человеческим мозгом. Он посылает их на полгода назад, чтобы черепашки смогли отыскать части смертельного оружия раньше Трицератонов.

Качество: WEB-DL 720p
Формат: MKV
Видео: MPEG-4 AVC, 1280x718 [16:9], 23.976 fps, ~ 4000 Kbps
Аудио 1: [Русский] AC3, 48 kHz, 2 ch, 192 Kbps - Nickelodeon / SDI Media
Аудио 2: [Английский] AAC, 48 kHz, 2 ch, 160 Kbps
Субтитры: Английские (SDH)
Ссылка на предыдущие и альтернативные раздачи

Релиз

Релиз HDCLUB - BenderBEST
• Благодарим за качественные записи дубляжа BenderBEST, IVXL, Beer kolesik Drinkers
• Работа c дорогой - BenderBEST

Подробные технические данные

Общее
Уникальный идентификатор : 181058928075786957097001569506703360258 (0x8836AE5E6744091A9044B565348AC102)
Полное имя : D:\Teenage.Mutant.Ninja.Turtles.S04.720p.WEB-DL.Rus.Eng.HDCLUB\Teenage.Mutant.Ninja.Turtles.S04.E01.720p.WEB-DL.Rus.Eng.HDCLUB.mkv
Формат : Matroska
Версия формата : Version 4 / Version 2
Размер файла : 703 Мбайт
Продолжительность : 22 м. 43 с.
Общий поток : 4327 Кбит/сек
Название фильма : Teenage Mutant Ninja Turtles S04E01 - ReJliz HDCLUB by BenderBEST
Дата кодирования : UTC 2017-05-16 20:08:28
Программа кодирования : mkvmerge v7.9.0 ('Birds') 64bit
Библиотека кодирования : libebml v1.3.1 + libmatroska v1.4.2
Видео
Идентификатор : 1
Формат : AVC
Формат/Информация : Advanced Video Codec
Профиль формата : High@L3.1
Параметр CABAC формата : Нет
Параметр ReFrames формата : 2 кадра
Идентификатор кодека : V_MPEG4/ISO/AVC
Продолжительность : 22 м. 43 с.
Битрейт : 3976 Кбит/сек
Ширина : 1280 пикселей
Высота : 718 пикселей
Соотношение сторон : 16:9
Режим частоты кадров : Постоянный
Частота кадров : 23,976 (24000/1001) кадра/сек
Цветовое пространство : YUV
Субдискретизация насыщенности : 4:2:0
Битовая глубина : 8 бит
Тип развёртки : Прогрессивная
Бит/(Пиксели*Кадры) : 0.180
Размер потока : 646 Мбайт (92%)
Язык : English
Default : Да
Forced : Да
Цветовой диапазон : Limited
Основные цвета : BT.709
Характеристики трансфера : BT.709
Коэффициенты матрицы : BT.709
Аудио #1
Идентификатор : 2
Формат : AC-3
Формат/Информация : Audio Coding 3
Параметр Endianness формата : Big
Идентификатор кодека : A_AC3
Продолжительность : 22 м. 43 с.
Вид битрейта : Постоянный
Битрейт : 192 Кбит/сек
Каналы : 2 канала
Расположение каналов : Front: L R
Частота : 48,0 КГц
Частота кадров : 31,250 кадров/сек (1536 spf)
Битовая глубина : 16 бит
Метод сжатия : С потерями
Размер потока : 31,2 Мбайт (4%)
Заголовок : AC3 2.0 @ 192 kbps - DUB, Nickelodeon / SDI Media
Язык : Russian
ServiceKind/String : Complete Main
Default : Да
Forced : Да
Аудио #2
Идентификатор : 3
Формат : AAC
Формат/Информация : Advanced Audio Codec
Профиль формата : LC
Идентификатор кодека : A_AAC
Продолжительность : 22 м. 43 с.
Битрейт : 156 Кбит/сек
Каналы : 2 канала
Расположение каналов : Front: L R
Частота : 48,0 КГц
Частота кадров : 46,875 кадров/сек (1024 spf)
Метод сжатия : С потерями
Размер потока : 25,4 Мбайт (4%)
Заголовок : AAC 2.0 @ 160 kbps
Язык : English
Default : Нет
Forced : Нет
Текст
Идентификатор : 4
Формат : UTF-8
Идентификатор кодека : S_TEXT/UTF8
Идентификатор кодека/Информация : UTF-8 Plain Text
Продолжительность : 21 м. 45 с.
Битрейт : 74 бит/сек
ElementCount : 400
Размер потока : 11,9 Кбайт (0%)
Заголовок : SDH
Язык : English
Default : Нет
Forced : Нет

Скриншоты


[cybertorrent.ru].t57118.torrent 
Торрент: Зарегистрирован [ 2018-07-12 00:16 ] · AB57608D5EAFF588D1D085E42C44EE9DDDC9A5BA

Скачать .torrent

Скачать

93 KB

Статус: проверено
Скачан: 0 раз
Размер: 18,07 GB
Профиль [ЛС]
Показать сообщения:    

Текущее время: 23-Сен 20:21

Часовой пояс: UTC ± 0



Вы не можете начинать темы
Вы не можете отвечать на сообщения
Вы не можете редактировать свои сообщения
Вы не можете удалять свои сообщения
Вы не можете голосовать в опросах
Вы не можете прикреплять файлы к сообщениям
Вы можете скачивать файлы
Torrents24.ru открытый BitTorrent Torrents24.pl открытый BitTorrent CyberTorrent.ru открытый BitTorrent BtList.ru рейтинг BitTorrent трекеров Яндекс.Метрика