BitTorrent клиенты



Сладкая милашка / Sweet sugar (Мишель Левески / Michel Levesque) [1972, США, боевик, приключения, HDRip] VO (Алексей Багичев)

Ответить на тему
Статистика раздачи
Размер:  1,46 GB   |    Зарегистрирован:  4 месяца 13 дней   |    Скачан:  0 раз

Полного источника не было: Никогда

 
   
 
 
Автор Сообщение

GEEP ®

Пол: Не указан

Стаж: 1 год

Сообщений: 866

Создавать темы 03-Окт-2018 16:52

[Цитировать]

Сладкая милашка / Sweet sugar
Страна: США
Жанр: боевик, приключения
Год выпуска: 1972
Продолжительность: 01:26:17

Перевод: Одноголосый закадровый Алексей Багичев
Субтитры: нет
Режиссер: Мишель Левески / Michel Levesque
В ролях: Энгус Дункан, Филлис Дэвис, Клифф Осмонд, Жаклин Жиру, Джеймс Хотон, Альберт Коул, Darl Severns, Памела Коллинз, Тимоти Браун
Описание: Сюжет фильма знакомит нас с обворожительной, обаятельной проституткой по прозвищу «Милашка». Кроме своих непосредственных обязанностей девушка занимается вымогательством, шантажом и соблазнением высокопоставленных лиц начиная от крупных бизнесменов заканчивая крупным и политическими деятелями. Эту работу девушка выполняет неохотно, но, увы, выбора у нее нет, так как в свое время ее мастерски завербовал коррумпированный политик, входящий в правительство. Отныне за большие деньги она занимается своеобразным шпионажем среди остальных политических деятелей, куда девушку ее отправляет ее патрон. Но однажды девушка по собственной, же глупости и определенному стечению обстоятельств проваливает миссию хозяина. И как итог, взбешенный политик, чтобы отвести от себя подозрение решает «слить» свою подчиненную. Осознав, какая опасность ей грозит героиня, дабы избежать многолетнего срока в тюрьме принимает решение стать одним из многочисленных участников медицинских экспериментов доктора Джона отличающегося особым садизмом….
Доп. информация: Выражаю благодарность Нордеру за синхронизацию звуковой дорожки.
Сэмпл: http://multi-up.com/1210576
Качество видео: HDRip (Исходник Sweet.sugar.1972.BDRip.720p.mkv / KinoZal)
Формат видео: AVI
Видео: XviD 73, 720x384, (1,85:1), 23,976 fps, 2220 Кбит/с, 8 бит, 0.33 bit/pixel
Аудио: Русский (АС3, 2 ch (Front: L R), 48,0 KHz, 192 Kbps)

MediaInfo

Общее
Полное имя : D:\Сладкая милашка (боевик, приключения 1972 год).avi
Формат : AVI
Формат/Информация : Audio Video Interleave
Размер файла : 1,46 Гбайт
Продолжительность : 1 ч. 26 м.
Общий поток : 2422 Кбит/сек
Программа кодирования : VirtualDubMod 1.5.10.2 (build 2540/release)
Библиотека кодирования : VirtualDubMod build 2540/release
Видео
Идентификатор : 0
Формат : MPEG-4 Visual
Профиль формата : Advanced Simple@L5
Параметр BVOP формата : 2
Параметр QPel формата : Нет
Параметр GMC формата : Без точки перехода
Параметр матрицы формата : Выборочная
Идентификатор кодека : XVID
Идентификатор кодека/Подсказка : XviD
Продолжительность : 1 ч. 26 м.
Битрейт : 2220 Кбит/сек
Ширина : 720 пикселей
Высота : 384 пикселя
Соотношение сторон : 1,85:1
Частота кадров : 23,976 (23976/1000) кадра/сек
Цветовое пространство : YUV
Субдискретизация насыщенности : 4:2:0
Битовая глубина : 8 бит
Тип развёртки : Прогрессивная
Метод сжатия : С потерями
Бит/(Пиксели*Кадры) : 0.335
Размер потока : 1,34 Гбайт (92%)
Библиотека кодирования : XviD 73
Аудио
Идентификатор : 1
Формат : AC-3
Формат/Информация : Audio Coding 3
Расширение режима : CM (complete main)
Параметр Endianness формата : Big
Идентификатор кодека : 2000
Продолжительность : 1 ч. 26 м.
Вид битрейта : Постоянный
Битрейт : 192 Кбит/сек
Каналы : 2 канала
Расположение каналов : Front: L R
Частота : 48,0 КГц
Частота кадров : 31,250 кадров/сек (1536 spf)
Метод сжатия : С потерями
Размер потока : 119 Мбайт (8%)
Выравнивание : Разделение по промежуткам
Продолжительность промежутка : 42 мс. (1,00 видеокадр)
Время предзагрузки промежутка : 500 мс.

Скриншот c названием фильма

Скриншоты

[cybertorrent.ru].t57118.torrent 
Торрент: Зарегистрирован [ 2018-10-03 16:55 ] · 0122B4E9BC5674F920A164A71239B0882C9C80D0

Скачать .torrent

Скачать

15 KB

Статус: проверено
Скачан: 0 раз
Размер: 1,46 GB
terms.php
[Профиль] [ЛС]
Показать сообщения:    
Ответить на тему

Текущее время: 17-Фев 09:11

Часовой пояс: UTC + 3



Вы не можете начинать темы
Вы не можете отвечать на сообщения
Вы не можете редактировать свои сообщения
Вы не можете удалять свои сообщения
Вы не можете голосовать в опросах
Вы не можете прикреплять файлы к сообщениям
Вы можете скачивать файлы