Статистика раздачи
Размер:  19,61 GB   |    Зарегистрирован:  2 месяца 11 дней   |    Скачан:  0 раз

Полного источника не было: Никогда

 
   
 
 

dazbaz ®

Пол:
Не указан
Стаж:
7 месяцев 8 дней
Сообщений:
144

- Год выпуска: 1989
Страна: Япония
Жанр: приключения, фантастика, меха, драма
Продолжительность: OVA, 6 эп. по 27 мин.
Режиссер: Такаяма Фумихико
Студия: Sunrise
Выпуск: с 25.03.1989 по 25.08.1989-Описание:

Сторона-6 — группа космических колоний, объявившая свой нейтралитет по отношению к Земной Федерации за два года до Одногодичной Войны и сохранившая его до сегодняшнего времени благодаря поддержке дипломатических отношений с Федерацией. События разворачиваются на колонии Либот, где живёт Альфред Идзуруха, десятилетний мальчик, интересующийся мобильными доспехами и не имеющий представления о настоящей войне. Когда распространились слухи о том, что колония скрывает программу Федерации по развитию мобильных доспехов, Зион незамедлительно отправил специальный отряд «Циклоп» на Сторону-6. Вскоре для Зиона миссия принимает статус первостепенной важности, и военные действия ожидаемо разворачиваются на некогда мирной колонии. Альферд вынужден ощутить на себе жестокую реальность войны.© StarRock .-Информационные ссылки: AniDB || World Art || MAL-Качество: BDRip
Автор рипа: Mulder [Beatrice-Raws]
Тип релиза: Без хардсаба; без линковки; с главами
Формат видео: MKV
Видео: MPEG4(х264); 10 bit; 1440x1080; ~16.5 Мбит/сек; 23.976 кадра/сек
Аудио JAP: FLAC L8; 48kHz; 2 канала; ~1430 Кбит/сек; язык: японский
Субтитры RUS: SRT; внешние; язык: русский; перевод: Blaise

Субтитры ENG: ASS; встроенные; язык: английские

Субтитры ENG: стилизованные официальные субтитры с американского издания DVD, исправленные

Список эпизодов

01. How Many Miles To The Battlefield
02. Reflections In A Brown Eye
03. And At The End Of The Rainbow
04. Over The River And Through The Woods
05. Say It Ain`t So, Bernie
06. War In The Pocket

Скриншоты

Отличия от других раздач

Cutmaster X - BDRip
@Boris@ - BDRip
-

Подробные тех. данные

General
Unique ID : 222299486146750486616539377003964799476 (0xA73D52DDF3445B76AD3E38A3EBB619F4)
Complete name : \Mobile Suit Gundam 0080 [BDRip 1080p x264 FLAC]\[Beatrice] Mobile Suit Gundam 0080 01 [BDRip 1440x1080 x264 FLAC].mkv
Format : Matroska
Format version : Version 4 / Version 2
File size : 3.28 GiB
Duration : 26 min 15 s
Overall bit rate mode : Variable
Overall bit rate : 17.9 Mb/s
Encoded date : UTC 2017-09-02 20:20:09
Writing application : mkvmerge v13.0.0 ('The Juggler') 64bit
Writing library : libebml v1.3.4 + libmatroska v1.4.5
Attachments : FIRST__.TTF / StencilStd.otf
Video
ID : 1
Format : AVC
Format/Info : Advanced Video Codec
Format profile : High 10@L5
Format settings, CABAC : Yes
Format settings, RefFrames : 4 frames
Codec ID : V_MPEG4/ISO/AVC
Duration : 26 min 15 s
Bit rate : 16.5 Mb/s
Width : 1 440 pixels
Height : 1 080 pixels
Display aspect ratio : 4:3
Frame rate mode : Constant
Frame rate : 23.976 (24000/1001) FPS
Color space : YUV
Chroma subsampling : 4:2:0
Bit depth : 10 bits
Scan type : Progressive
Bits/(Pixel*Frame) : 0.442
Stream size : 3.02 GiB (92%)
Title : BDRip by Mulder
Writing library : x264 core 148 r2597M e86f3a1 (DJATOM's build)
Encoding settings : cabac=1 / ref=4 / deblock=1:1:-2 / analyse=0x3:0x113 / me=umh / subme=9 / psy=1 / fade_compensate=0.00 / psy_rd=1.00:0.00 / mixed_ref=1 / me_range=32 / chroma_me=1 / trellis=2 / 8x8dct=1 / cqm=0 / deadzone=21,11 / fast_pskip=1 / chroma_qp_offset=-2 / threads=6 / lookahead_threads=1 / sliced_threads=0 / nr=0 / decimate=1 / interlaced=0 / bluray_compat=0 / constrained_intra=0 / bframes=9 / b_pyramid=2 / b_adapt=2 / b_bias=0 / direct=1 / weightb=1 / open_gop=0 / weightp=2 / keyint=250 / keyint_min=23 / scenecut=40 / intra_refresh=0 / rc=crf / mbtree=0 / crf=17.0000 / qcomp=0.72 / qpmin=0 / qpmax=81 / qpstep=4 / ip_ratio=1.40 / pb_ratio=1.30 / aq=1:0.85
Language : Japanese
Default : Yes
Forced : No
Color range : Limited
Color primaries : BT.709
Transfer characteristics : BT.709
Matrix coefficients : BT.709
Audio
ID : 2
Format : FLAC
Format/Info : Free Lossless Audio Codec
Codec ID : A_FLAC
Duration : 26 min 15 s
Bit rate mode : Variable
Bit rate : 1 429 kb/s
Channel(s) : 2 channels
Channel positions : Front: L R
Sampling rate : 48.0 kHz
Frame rate : 11.719 FPS (4096 SPF)
Bit depth : 24 bits
Stream size : 268 MiB (8%)
Title : LPCM->FLAC
Writing library : libFLAC 1.2.1 (UTC 2007-09-17)
Language : Japanese
Default : Yes
Forced : No
Text
ID : 3
Format : ASS
Codec ID : S_TEXT/ASS
Codec ID/Info : Advanced Sub Station Alpha
Duration : 26 min 10 s
Bit rate : 73 b/s
Count of elements : 251
Compression mode : Lossless
Stream size : 14.0 KiB (0%)
Title : English [R1]
Language : English
Default : Yes
Forced : No
Menu
00:00:00.000 : en:Intro
00:05:42.550 : en:OP
00:07:23.276 : en:Part A
00:12:54.315 : en:Part B
00:23:45.340 : en:ED
00:25:43.750 : en:Next
-

Информация о релизе

  • Выбор видео, перевода, осуществляется релизером и не подлежит обсуждению. Если вы считаете, что раздаваемый материал противоречит правилам раздела "Аниме" rutracker.org, сообщите об этом одному из модераторов раздела.

  • Данный релиз предназначен для просмотра на ПК. Воспроизведение на иных проигрывателях не гарантируется.

  • Данный релиз содержит 10-битное видео (Hi10p). Для корректного воспроизведения обязательно используйте кодеки, поддерживающие 10-битное видео.
    Обсудить проблемы с воспроизведением и получить дополнительную информацию можно здесь.

  • Данный релиз предназначен для просмотра с внешними субтитрами. Для просмотра с субтитрами нужно:
  • установить шрифты из папки "RUS Subs » Fonts";
  • скопировать файлы .ass из папки "RUS Subs" в одну папку с видео - плеер подгрузит их автоматически при открытии видео.
  • Если у вас возникли проблемы с просмотром, не связанные с описанным выше, сообщите о них автору раздачи посредством сообщения в теме или ЛС Horodep.
  • [cybertorrent.ru].t57123.torrent 
    Торрент: Зарегистрирован [ 2018-07-12 00:16 ] · B1FD6A2AF80EF77DA4C79700246B7B891DF4E571

    Скачать .torrent

    Скачать

    100 KB

    Статус: проверено
    Скачан: 0 раз
    Размер: 19,61 GB
    Профиль [ЛС]
    Показать сообщения:    

    Текущее время: 23-Сен 20:30

    Часовой пояс: UTC ± 0



    Вы не можете начинать темы
    Вы не можете отвечать на сообщения
    Вы не можете редактировать свои сообщения
    Вы не можете удалять свои сообщения
    Вы не можете голосовать в опросах
    Вы не можете прикреплять файлы к сообщениям
    Вы можете скачивать файлы
    Torrents24.ru открытый BitTorrent Torrents24.pl открытый BitTorrent CyberTorrent.ru открытый BitTorrent BtList.ru рейтинг BitTorrent трекеров Яндекс.Метрика