Статистика раздачи
Размер:  871 MB   |    Зарегистрирован:  2 месяца 11 дней   |    Скачан:  0 раз

Полного источника не было: Никогда

 
   
 
 

android ®

Пол:
Не указан
Стаж:
7 месяцев 8 дней
Сообщений:
79

Человек-Паук / Spider-Man (2017)
Страна: США
Жанр: Приключения, Комедия, Экранизация Комиксов
Продолжительность серии: ~22мин.
Год выпуска: 2017
Перевод: Субтитры (Grassy)
Режиссёр: Филип Пигнотти, Эрик Радомски / Philip Pignotti, Eric Radomski
Роли озвучивали: Робби Даймонд, Макс Миттельман, Нэнси Лайнари, Алистер Данкан
Описание: Новый мультсериал от Марвел рассказывает о первых днях Питера Паркера на посту защитника Нью-Йорка, супергероя Человека-Паука. Питеру предстоит встретиться с новыми друзьями и обрести смертельных врагов. Сериал стал заменой закрытому ранее Ultimate Spider-Man. Это новая история, запущенная для дальнейшей популяризации киновселенной Марвел.
Список серий:
01. Школа Горизонт - часть 1.
Доп. информация: Новые серии будут добавляться раз в неделю.
Качество: WEB-DL 1080p
Формат: MKV
Видео: MPEG-4 AVC, 1920x1080 (16:9), 23.976 fps, ~ 5000 kbps
Аудио: Dolby AC3, 48000Hz, 6ch, 384kbps
Субтитры: Русские, Английские
Сэмпл
Все раздачи мультсериала

Подробные технические данные

General
Уникальный идентификатор : 239802811831741952294304326174069846726 (0xB46857737546BD96A3771515FA2172C6)
Полное имя : S01E01 Horizon High Part 1.mkv
Формат : Matroska
Версия формата : Version 4 / Version 2
Размер файла : 871 MiB
Продолжительность : 22 min 36 s
Общий поток : 5 387 kb/s
Дата кодирования : UTC 2017-09-03 17:50:49
Программа кодирования : mkvmerge v15.0.0 ('Duel with the Devil') 64-bit
Библиотека кодирования : libebml v1.3.5 + libmatroska v1.4.5
Video
Идентификатор : 1
Формат : AVC
Формат/Информация : Advanced Video Codec
Профиль формата : High@L4
Параметр CABAC формата : Yes
Параметр RefFrames формата : 4 frames
Идентификатор кодека : V_MPEG4/ISO/AVC
Продолжительность : 22 min 7 s
Битрейт : 5 118 kb/s
Ширина : 1 920 pixels
Высота : 1 080 pixels
Соотношение сторон : 16:9
Режим частоты кадров : Constant
Частота кадров : 23.976 (24000/1001) FPS
Цветовое пространство : YUV
Субдискретизация насыщенности : 4:2:0
Битовая глубина : 8 bits
Тип развёртки : Progressive
Бит/(Пиксели*Кадры) : 0.103
Размер потока : 810 MiB (93%)
Заголовок : H.264
Язык : English
Default : Yes
Forced : No
Цветовой диапазон : Limited
Основные цвета : BT.709
Характеристики трансфера : BT.709
Коэффициенты матрицы : BT.709
Audio
Идентификатор : 2
Формат : AC-3
Формат/Информация : Audio Coding 3
Параметр Endianness формата : Big
Идентификатор кодека : A_AC3
Продолжительность : 22 min 7 s
Вид битрейта : Constant
Битрейт : 384 kb/s
Каналы : 6 channels
Расположение каналов : Front: L C R, Side: L R, LFE
Частота : 48.0 kHz
Частота кадров : 31.250 FPS (1536 SPF)
Битовая глубина : 16 bits
Метод сжатия : Lossy
Размер потока : 60.8 MiB (7%)
Заголовок : DD5.1
Язык : English
ServiceKind/String : Complete Main
Default : Yes
Forced : No
Text #1
Идентификатор : 3
Формат : UTF-8
Идентификатор кодека : S_TEXT/UTF8
Идентификатор кодека/Информация : UTF-8 Plain Text
Продолжительность : 21 min 35 s
Битрейт : 92 b/s
ElementCount : 419
Размер потока : 14.7 KiB (0%)
Заголовок : CC
Язык : English
Default : No
Forced : No
Text #2
Идентификатор : 4
Формат : UTF-8
Идентификатор кодека : S_TEXT/UTF8
Идентификатор кодека/Информация : UTF-8 Plain Text
Продолжительность : 22 min 23 s
Битрейт : 137 b/s
ElementCount : 380
Размер потока : 22.6 KiB (0%)
Заголовок : Russian
Язык : Russian
Default : Yes
Forced : No

Скриншоты




[cybertorrent.ru].t57124.torrent 
Торрент: Зарегистрирован [ 2018-07-12 00:16 ] · D1678F33084A8075DAFD17C6084C3F5A4B2AFEAB

Скачать .torrent

Скачать

17 KB

Статус: проверено
Скачан: 0 раз
Размер: 871 MB
Профиль [ЛС]
Показать сообщения:    

Текущее время: 23-Сен 20:07

Часовой пояс: UTC ± 0



Вы не можете начинать темы
Вы не можете отвечать на сообщения
Вы не можете редактировать свои сообщения
Вы не можете удалять свои сообщения
Вы не можете голосовать в опросах
Вы не можете прикреплять файлы к сообщениям
Вы можете скачивать файлы
Torrents24.ru открытый BitTorrent Torrents24.pl открытый BitTorrent CyberTorrent.ru открытый BitTorrent BtList.ru рейтинг BitTorrent трекеров Яндекс.Метрика