BitTorrent клиенты



Московская борзая / Сезон: 2 / Серии: 1-4 из 16 (Роман Просвирнин) [2018, криминал, мелодрама, WEBRip]

Ответить на тему
Статистика раздачи
Размер:  2,44 GB   |    Зарегистрирован:  4 месяца 13 дней   |    Скачан:  0 раз

Полного источника не было: Никогда

 
   
 
 
Автор Сообщение

АААааа ®

Пол: Не указан

Стаж: 11 месяцев 17 дней

Сообщений: 1140

Создавать темы 03-Окт-2018 16:52

[Цитировать]

Московская борзая 2
Год выпуска: 2018
Производство: кинокомпания «Русское»
Жанр: криминал, мелодрама
Продолжительность: ~00:52:00 серия
Субтитры: нет
Режиссёр: Роман Просвирнин
В ролях: Екатерина Климова, Ольга Красько, Олег Алмазов, Александр Ратников, Сергей Мухин, Николай Лунин, Татьяна Кузнецова, Михаил Владимиров, Владимир Литвинов, Арсений Гусев, Владимир Терещенко, Таисия Ручковская, Руслан Ягудин, Дарья Логинова, Денис Васильев, Олег Морозов, Тихон Бузников, Сергей Шеховцов, Александр Стефанцов, Евгений Вильтовский, Владислав Резник, Сергей Петров, Светлана Чуйкина, Надежда Бахтина, Анастасия Балякина, Константин Кузьмичёв, Валентин Самохин, Игорь Поселенов
Описание: Новый сезон по-настоящему удивит телезрителей, ведь на этот раз события развернутся... в подсознании главной героини! Распутывая очередное преступление, Борзова сама становится жертвой. По сценарию, среди груды тел следователи находят полуживую Алевтину. Чтобы распутать головоломку и разобраться в трагедии, сыщики решаются на небывалый эксперимент. Интрига будет строиться вокруг нового персонажа в исполнении актрисы Екатерины Климовой. Именно её героине предстоит внедриться в голову майора Борзовой.

Реклама: Нет.
Кинопоиск
Все раздачи сериала
Sample
Качество: WEBRip - Files-x
Формат: AVI
Видео кодек: XviD
Аудио кодек: AC3
Видео: 720x400 (1.80:1), 25 fps, XviD ~1500 kbps avg, 0.208 bit/pixel
Аудио: 48.0 kHz, AC3 Dolby Digital, 2/0 (L,R) ch, ~ 192 kbps

Внимание! Раздача ведётся путём добавления новых серий

Раздача ведётся путём добавления новых серий, при каждом добавлении создаётся новый торрент. Чтобы начать докачку новой серии, пользователям необходимо сделать следующее:
- Остановить скачивание.
- Удалить старый торрент у себя из клиента (старые серии удалять не надо).
- Скачать новый торрент и запустить его у себя в клиенте вместо старого, при этом указать клиенту путь в старую папку куда и должно происходить скачивание новых серий.
Ваш клиент при этом должен произвести хеширование (проверку) старой папки (если не производит сам - помогите ему сделать это), и будет докачивать только те серии которых у вас ещё нет. Старые серии при этом не удаляются, а продолжают раздаваться!
Если вы уже удалили старые серии, то предотвратить повторную закачку старых серий можно, отжав галочку в соответствующих местах при запуске нового торрента. По возможности, желательно не удалять старые серии как можно дольше, чтобы релизер не столько продолжал раздавать старые серии, а смог сконцентрироваться на новых.

MI

General
Complete name : D:\Московская борзая 2 сезон.2018.WEB-DLRip.Files-x\01.Московская борзая 2 сезон.2018.WEB-DLRip.Files-x.avi
Format : AVI
Format/Info : Audio Video Interleave
File size : 621 MiB
Duration : 51 min 1 s
Overall bit rate : 1 702 kb/s
Writing application : VirtualDubMod 1.5.10.3 | www.virtualdub-fr.org || (build 2550/release)
Writing library : VirtualDubMod build 2550/release
Video
ID : 0
Format : MPEG-4 Visual
Format profile : Advanced Simple@L5
Format settings : BVOP1 / Custom Matrix
Format settings, BVOP : 1
Format settings, QPel : No
Format settings, GMC : No warppoints
Format settings, Matrix : Custom
Codec ID : XVID
Codec ID/Hint : XviD
Duration : 51 min 1 s
Bit rate : 1 500 kb/s
Width : 720 pixels
Height : 400 pixels
Display aspect ratio : 16:9
Frame rate : 25.000 FPS
Color space : YUV
Chroma subsampling : 4:2:0
Bit depth : 8 bits
Scan type : Progressive
Compression mode : Lossy
Bits/(Pixel*Frame) : 0.208
Stream size : 547 MiB (88%)
Writing library : XviD 73
Audio
ID : 1
Format : AC-3
Format/Info : Audio Coding 3
Codec ID : 2000
Duration : 51 min 1 s
Bit rate mode : Constant
Bit rate : 192 kb/s
Channel(s) : 2 channels
Channel positions : Front: L R
Sampling rate : 48.0 kHz
Frame rate : 31.250 FPS (1536 SPF)
Bit depth : 16 bits
Compression mode : Lossy
Stream size : 70.1 MiB (11%)
Alignment : Split accross interleaves
Interleave, duration : 40 ms (1.00 video frame)
Interleave, preload duratio : 500 ms
Service kind : Complete Main

Скриншоты


[cybertorrent.ru].t57134.torrent 
Торрент: Зарегистрирован [ 2018-10-03 16:55 ] · 735BF1C3886C00256D193F5208726BAE81EBBBCA

Скачать .torrent

Скачать

13 KB

Статус: проверено
Скачан: 0 раз
Размер: 2,44 GB
terms.php
[Профиль] [ЛС]
Показать сообщения:    
Ответить на тему

Текущее время: 17-Фев 08:43

Часовой пояс: UTC + 3



Вы не можете начинать темы
Вы не можете отвечать на сообщения
Вы не можете редактировать свои сообщения
Вы не можете удалять свои сообщения
Вы не можете голосовать в опросах
Вы не можете прикреплять файлы к сообщениям
Вы можете скачивать файлы