BitTorrent клиенты



Полицейская история 2 / Police Story 2 / Ging chaat goo si juk jaap (Джеки Чан / Jackie Chan) [1988, Гонконг, Комедийный боевик, DVDRip] [Американская версия] VO

Ответить на тему
Статистика раздачи
Размер:  1,2 GB   |    Зарегистрирован:  4 месяца 13 дней   |    Скачан:  0 раз

Полного источника не было: Никогда

 
   
 
 
Автор Сообщение

StartSoft ®

Пол: Не указан

Стаж: 1 год

Сообщений: 1587

Создавать темы 03-Окт-2018 16:52

[Цитировать]

Полицейская история 2 / Police Story 2 / Ging chaat goo si juk jaap
[Американская версия]
Страна: Гонконг
Жанр: Комедийный боевик
Год выпуска: 1988
Продолжительность: 01:35:12
Перевод: Одноголосый закадровый
Субтитры: нет
Режиссер: Джеки Чан / Jackie Chan
В ролях: Джеки Чан, Мэгги Чун, Квок-Хун Лам, Билл Тун, Бенни Лай, Джон Чунг, Чарли Чо, Юэнь Чор, Бен Лам,
Чан Чи Фай Санни
Описание: На свободу выходит босс наркомафии Ку, но наркоторговля не остановлена, и первая его мысль после
заключения — отомстить полицейскому Кевину Ченгу, упрятавшему его за решетку. Ку нанимает киллера,
который, впрочем, явно не в себе…
Тем временем группа изощренных террористов пугает население серией взрывов в людных местах и вымогает 10
миллионов долларов у одной торговой фирмы. Справиться с этой ситуацией и спасти любимую девушку под силу
только полицейскому Кевину Ченгу.
Доп. информация: Дорожка с VO синхронизирована и наложена ale_x2008 при помощи Adobe Audition, Sony Vegas и VirtualDubMod.
За оцифрованную с VHS дорожку благодарим - SLASH_GUN и d_rocker

Релиз
Сэмпл: https://yadi.sk/i/oe8jR0gfF_-tTg
Качество видео: DVDRip
Формат видео: AVI
Видео: XviD build 50, 720x304 (2.37:1), 23.976 fps, 1608 kbps avg, 0.31 bit/pixel
Аудио: AC3 Dolby Digital, 48000Hz 2/0 (L,R) ch (mono), 192 kbps avg

MediaInfo

Полицейская история 2 - Ging chaat goo si juk jaap (by ale_x2008).avi
Format : AVI
Format/Info : Audio Video Interleave
File size : 1.20 GiB
Duration : 1 h 35 min
Overall bit rate : 1 810 kb/s
Movie name : Полицейская история 2 / Police Story 2 / Ging chaat goo si juk jaap (REN-TV/ТНТ/ТВ3 + НТВ/РТР + Интер)
Director : JUSTKANT
Writing application : VirtualDubMod 1.5.10.2 (build 2540/release)
Copyright : ale_X2008 | Edich2
Comment : RuTracker.org
Video
ID : 0
Format : MPEG-4 Visual
Format profile : Advanced Simple@L5
Format settings : BVOP1 / Custom Matrix
Format settings, BVOP : 1
Format settings, QPel : No
Format settings, GMC : No warppoints
Format settings, Matrix : Custom
Codec ID : XVID
Codec ID/Hint : XviD
Duration : 1 h 35 min
Bit rate : 1 608 kb/s
Width : 720 pixels
Height : 304 pixels
Display aspect ratio : 2.35:1
Frame rate : 23.976 (24000/1001) FPS
Original frame rate : 23.976 (23976/1000) FPS
Color space : YUV
Chroma subsampling : 4:2:0
Bit depth : 8 bits
Scan type : Progressive
Compression mode : Lossy
Bits/(Pixel*Frame) : 0.306
Stream size : 1.07 GiB (89%)
Writing library : XviD 1.2.1 (UTC 2008-12-04)
Audio
ID : 1
Format : AC-3
Format/Info : Audio Coding 3
Codec ID : 2000
Duration : 1 h 35 min
Bit rate mode : Constant
Bit rate : 192 kb/s
Channel(s) : 2 channels
Channel positions : Front: L R
Sampling rate : 48.0 kHz
Frame rate : 31.250 FPS (1536 SPF)
Bit depth : 16 bits
Compression mode : Lossy
Stream size : 131 MiB (11%)
Alignment : Split accross interleaves
Interleave, duration : 42 ms (1.00 video frame)
Interleave, preload duratio : 500 ms
Service kind : Complete Main

Скриншоты


[cybertorrent.ru].t57162.torrent 
Торрент: Зарегистрирован [ 2018-10-03 16:55 ] · B4B6A15DCB2E0DF59C330B2E963E28F7CCF8CCFA

Скачать .torrent

Скачать

13 KB

Статус: проверено
Скачан: 0 раз
Размер: 1,2 GB
terms.php
[Профиль] [ЛС]
Показать сообщения:    
Ответить на тему

Текущее время: 17-Фев 09:01

Часовой пояс: UTC + 3



Вы не можете начинать темы
Вы не можете отвечать на сообщения
Вы не можете редактировать свои сообщения
Вы не можете удалять свои сообщения
Вы не можете голосовать в опросах
Вы не можете прикреплять файлы к сообщениям
Вы можете скачивать файлы