Статистика раздачи
Размер:  5,71 GB   |    Зарегистрирован:  2 месяца 6 дней   |    Скачан:  0 раз

Полного источника не было: Никогда

 
   
 
 

Red ®

Пол:
Не указан
Стаж:
7 месяцев 3 дня
Сообщений:
87

Гриффины / Family Guy
Страна: США
Жанр: Комедия, Пародия, Сатира
Продолжительность серии: ~20 минут
Год выпуска: 2015-2016
Перевод: Профессиональный (многоголосый закадровый)
Русские субтитры: нет
Режиссёр: Сет МакФарлейн / Seth MacFarlane
Роли озвучивали: Олег Форостенко - Питер, Брайан, Кливленд и другие.
Василий Зотов - Крис, Стьюи, Куагмир и другие.
Людмила Ильина - все женские и детские роли.
Описание: "Гриффины" - анимационное ТВ-шоу, созданное Сетом МакФарлейном для телеканала FOX. Как нетрудно догадаться, главными героями шоу является семейка Гриффинов: тупой, но полный сумасшедших идей, составляющих львиную долю шуток сериала, отец семейства Питер; его любящая и терпеливая жена Лоис, всеми силами пытающаяся превратить Гриффинов в нормальную семью; их интеллектуально развитый не по годам, вынашивающий идею мирового господства младший сын Стьюи; дочь-ботаник, обречённая из-за этого на одиночество и непонимание как в школе так и дома, Мэг; и 13-ти летний отсталый в развитии лет на 10, сын Крис. Также полноценным членом семьи является пёс Брайан - склонный к меланхолии эстет, спокойно наблюдающий с бокалом вина в лапе над приключениями Питера и остальных членов семьи (и это при всём притом, что остальные собаки в сериале не являются очеловеченными).
Список серий:
01. Pilling Them Softly (Отпилюль их нежно)
02. Papa Has a Rollin' Son (Папа может прокатить сыночка)
03. Guy, Robot (Парень, робот)
04. Peternormal Activity (Питеронормальная активность)
05. Peter, Chris, & Brian (Питер, Крис и Брайан)
06. Peter's Sister (Сестра Питера)
07. Hot Pocket-Dial (Горячий карманный набор)
08. Brokeback Swanson (Переломанный Суонсон)
09. A Shot in the Dark (Выстрел в темноте)
10. Candy, Quahog Marshmallow (Сладкие зефирки из Куахога)
11. The Peanut Butter Kid (Детское арахисовое масло)
12. Scammed Yankees (Обманутые янки)
13. An App a Day (Приложение дня)
14. Underage Peter (Питер малолетка)
15. A Lot Going on Upstairs (Много всякого происходит наверху)
16. The Heartbreak Dog (Горе-собака)
17. Take a Letter (Получите письмо)
18. The New Adventures of Old Tom (Новые приключения старого Тома)
19. Run, Chris, Run (Беги, Крис, беги)
20. Road to India (Какие люди в Болливуде (Дорога в Индию) )
Доп. информация: Вот мы и дождались: 14 сезон мультсериала "Гриффины" в переводе телеканала 2х2. Вообще-то по идее данный сезон должен был выйти в прошлом году, но премьеру перенесли аж на год позже Может, из-за выборов в США, может нет... В общем наслаждайтесь!
P. S. На сей раз была проведена внимательная работа с битрейтами и прочими параметрами, чтобы не было того ужаса, что был с моими записями 13 сезона. Полосы обрезаны, картинка почти как в записи, практически без искажений. Надеюсь, вам понравится
Ссылка на предыдущие и альтернативные раздачи: http://cybertorrent.ru/tracker.php?nm=Family%20Guy
Качество: SATRip
Формат: AVI
Видео: Xvid, 720х400, 25.00fps, 2000 kbps
Аудио: Русский, AC3 Dolby Digital, 2 ch, 192 kbps, 48 kHz
Субтитры: отсутствуют

Скриншоты

Подробные технические данные

General
Complete name : C:\Documents and Settings\Admin\Мои документы\Гриффины 14\01. Pilling Them Softly.avi
Format : AVI
Format/Info : Audio Video Interleave
File size : 313 MiB
Duration : 20mn 39s
Overall bit rate : 2 121 Kbps
Writing application : Lavf52.61.0
Video
ID : 0
Format : MPEG-4 Visual
Format profile : Simple@L3
Format settings, BVOP : No
Format settings, QPel : No
Format settings, GMC : No warppoints
Format settings, Matrix : Default (H.263)
Codec ID : XVID
Codec ID/Hint : XviD
Duration : 20mn 39s
Bit rate : 1 918 Kbps
Width : 720 pixels
Height : 400 pixels
Display aspect ratio : 16:9
Frame rate : 25.000 fps
Color space : YUV
Chroma subsampling : 4:2:0
Bit depth : 8 bits
Scan type : Progressive
Compression mode : Lossy
Bits/(Pixel*Frame) : 0.266
Stream size : 283 MiB (90%)
Writing library : XviD 1.2.1 (UTC 2008-12-04)
Audio
ID : 1
Format : AC-3
Format/Info : Audio Coding 3
Mode extension : CM (complete main)
Codec ID : 2000
Duration : 20mn 39s
Bit rate mode : Constant
Bit rate : 192 Kbps
Channel(s) : 2 channels
Channel positions : Front: L R
Sampling rate : 48.0 KHz
Bit depth : 16 bits
Compression mode : Lossy
Stream size : 28.4 MiB (9%)
Alignment : Aligned on interleaves
Interleave, duration : 32 ms (0.80 video frame)
[cybertorrent.ru].t57166.torrent 
Торрент: Зарегистрирован [ 2018-07-12 04:13 ] · 9567D777E5468B5896E895A4A391ED9933B95300

Скачать .torrent

Скачать

16 KB

Статус: проверено
Скачан: 0 раз
Размер: 5,71 GB
Профиль [ЛС]
Показать сообщения:    

Текущее время: 18-Сен 20:56

Часовой пояс: UTC ± 0



Вы не можете начинать темы
Вы не можете отвечать на сообщения
Вы не можете редактировать свои сообщения
Вы не можете удалять свои сообщения
Вы не можете голосовать в опросах
Вы не можете прикреплять файлы к сообщениям
Вы можете скачивать файлы
Torrents24.ru открытый BitTorrent Torrents24.pl открытый BitTorrent CyberTorrent.ru открытый BitTorrent BtList.ru рейтинг BitTorrent трекеров Яндекс.Метрика