BitTorrent клиенты



Полицейская история / Ging chaat goo si / Police Story / Jackie Chan's Police Force (Джеки Чан / Jackie Chan, Чи-Хва Чен / Chi-Hwa Chen) [1985, Гонконг, комедия, боевик, криминал, BDRip] [Американская версия] VO

Ответить на тему
Статистика раздачи
Размер:  1,23 GB   |    Зарегистрирован:  4 месяца 13 дней   |    Скачан:  0 раз

Полного источника не было: Никогда

 
   
 
 
Автор Сообщение

StartSoft ®

Пол: Не указан

Стаж: 1 год

Сообщений: 1587

Создавать темы 03-Окт-2018 16:52

[Цитировать]

Полицейская история / Ging chaat goo si / Police Story / Jackie Chan's Police Force
[Американская версия]
Страна: Гонконг
Жанр: комедия, боевик, криминал
Год выпуска: 1985
Продолжительность: 01:27:19
Перевод: Одноголосый закадровый
Субтитры: нет
Режиссер: Джеки Чан / Jackie Chan, Чи-Хва Чен / Chi-Hwa Chen
В ролях: Джеки Чан / Chan Ka Kui, Мэгги Чун / May, Бриджит Лин / Selina Fong, Квок-Хун Лам / Supt. Raymond Li, Билл Тун / Inspector Bill Wong, Юэнь Чао / Mr. Chu Tao, Чарли Чо / John Ko, Чи-Вин Лау / Cheung, the Lawyer, Фунг Харк-Он / Danny Koo, Хин Йинг Кэм / Inspector Man
Описание: В результате удачно проведенной облавы в руки полиции попадает босс наркомафии
Чи. Одному из полицейских, Кевину, принимавшему непосредственное участие в аресте, поручают
охрану секретарши преступника, которая проходит по делу в качестве главного свидетеля. Но в
день суда она исчезает. Только разыскав девушку и арестовав Чи, Кевин сможет снять с себя
подозрение в соучастии…
Доп. информация: Дорожка с VO синхронизирована и наложена ale_x2008 при помощи Adobe Audition, Sony Vegas и VirtualDubMod.
За оцифрованную с VHS дорожку благодарим - SLASH_GUN и d_rocker

Релиз
Сэмпл: https://yadi.sk/i/K81bBGotKeOhNQ
Качество видео: BDRip
Формат видео: AVI
Видео: XviD build 73, 720x304 (2.37:1), 23.976 fps, 1811 kbps avg, 0.34 bit/pixel
Аудио: AC3 Dolby Digital, 48000Hz 2/0 (L,R) ch (mono), 192 kbps avg

MediaInfo

Полицейская история - Ging chaat goo si (by ale_x2008).avi
Format : AVI
Format/Info : Audio Video Interleave
File size : 1.23 GiB
Duration : 1 h 27 min
Overall bit rate : 2 013 kb/s
Movie name : Полицейская история / Police Story / Ging chat goo si / Jackie Chan's Police Force (REN-TV/СТС/ТНТ + НТВ/РТР + Интер)
Director : JUSTKANT
Writing application : VirtualDubMod 1.5.10.2 (build 2540/release)
Copyright : ale_x2008 | Edich2
Comment : RuTracker.org
Video
ID : 0
Format : MPEG-4 Visual
Format profile : Advanced Simple@L5
Format settings : BVOP1 / Custom Matrix
Format settings, BVOP : 1
Format settings, QPel : No
Format settings, GMC : No warppoints
Format settings, Matrix : Custom
Codec ID : XVID
Codec ID/Hint : XviD
Duration : 1 h 27 min
Bit rate : 1 811 kb/s
Width : 720 pixels
Height : 304 pixels
Display aspect ratio : 2.35:1
Frame rate : 23.976 (24000/1001) FPS
Color space : YUV
Chroma subsampling : 4:2:0
Bit depth : 8 bits
Scan type : Progressive
Compression mode : Lossy
Bits/(Pixel*Frame) : 0.345
Stream size : 1.10 GiB (90%)
Writing library : XviD 73
Audio
ID : 1
Format : AC-3
Format/Info : Audio Coding 3
Codec ID : 2000
Duration : 1 h 27 min
Bit rate mode : Constant
Bit rate : 192 kb/s
Channel(s) : 2 channels
Channel positions : Front: L R
Sampling rate : 48.0 kHz
Frame rate : 31.250 FPS (1536 SPF)
Bit depth : 16 bits
Compression mode : Lossy
Stream size : 120 MiB (10%)
Alignment : Split accross interleaves
Interleave, duration : 42 ms (1.00 video frame)
Interleave, preload duratio : 500 ms
Service kind : Complete Main

Скриншоты


[cybertorrent.ru].t57167.torrent 
Торрент: Зарегистрирован [ 2018-10-03 16:55 ] · 8FC18A0E345E18BB3A3666B3FA0365529F56D246

Скачать .torrent

Скачать

13 KB

Статус: проверено
Скачан: 0 раз
Размер: 1,23 GB
terms.php
[Профиль] [ЛС]
Показать сообщения:    
Ответить на тему

Текущее время: 17-Фев 08:40

Часовой пояс: UTC + 3



Вы не можете начинать темы
Вы не можете отвечать на сообщения
Вы не можете редактировать свои сообщения
Вы не можете удалять свои сообщения
Вы не можете голосовать в опросах
Вы не можете прикреплять файлы к сообщениям
Вы можете скачивать файлы