BitTorrent клиенты



Гранд / Серии: 1-18 из 21 (Дмитрий Грибанов) [2018, комедия, WEBRip-AVC]

Ответить на тему
Статистика раздачи
Размер:  5,55 GB   |    Зарегистрирован:  4 месяца 13 дней   |    Скачан:  0 раз

Полного источника не было: Никогда

 
   
 
 
Автор Сообщение

АААааа ®

Пол: Не указан

Стаж: 11 месяцев 17 дней

Сообщений: 1140

Создавать темы 03-Окт-2018 16:52

[Цитировать]

Гранд- Год выпуска: 2018
Производство: Yellow, Black and White
Жанр: комедия
Продолжительность: ~ 00:28:00
Субтитры: Нет-Режиссёр: Дмитрий Грибанов-В ролях: Александр Лыков, Мила Сивацкая, Константин Белошапка, Ольга Филимонова, Григорий Сиятвинда, Екатерина Вилкова, Елена Ксенофонтова, Милош Бикович, Сергей Лавыгин, Михаил Тарабукин, Ольга Кузьмина, Виктор Хориняк, Диана Пожарская-Описание: Амбициозная и склонная к авантюрам студентка пятого курса Алтайского университета туризма и отдыха Ксения Завгородняя мечтает работать в гостиничном бизнесе и открыть собственный отель. Но навязчивое внимание ректора ставит под угрозу не только планы Ксюши, но и ее дальнейшее обучение в ВУЗе. Девушка находит смелый, но очень скандальный выход из ситуации, после которого ей приходится спасаться бегством из Барнаула. Ксюша отправляется в Москву в надежде устроиться портье в отель, где работает ее родственник.-Реклама: Нет-Сэмпл: http://multi-up.com/1210658-Качество: WEBRip-AVC - Серый1779
Формат: MKV
Видео кодек: H.264
Аудио кодек: AC3
Видео: MPEG-4 AVC, ~ 3000 Кбит/с, 1280x720, 0.132 bit/pixel, 23,976 кадров/сек
Аудио: 48.0 kHz, AC3 Dolby Digital, 2/0 (L,R) ch, ~ 192 kbps

MI

Общее
Уникальный идентификатор : 176567800192368538254717862426595180853 (0x84D5B8AB15080154D40F119C38464135)
Полное имя : E:\Гранд. (2018) WEB-DL 720p. Files-x\01. Гранд.2018.WEB-DL 720p. Files-x .mkv
Формат : Matroska
Версия формата : Version 2
Размер файла : 644 Мбайт
Продолжительность : 28 м. 16 с.
Общий поток : 3183 Кбит/сек
Программа кодирования : Lavf54.63.104
Библиотека кодирования : Lavf54.63.104
Видео
Идентификатор : 1
Формат : AVC
Формат/Информация : Advanced Video Codec
Профиль формата : High@L3.1
Настройки формата : CABAC / 4 Ref Frames
Параметр CABAC формата : Да
Параметр RefFrames формата : 4 кадра
Идентификатор кодека : V_MPEG4/ISO/AVC
Продолжительность : 28 м. 16 с.
Битрейт : 2927 Кбит/сек
Ширина : 1280 пикселей
Высота : 720 пикселей
Соотношение сторон : 16:9
Режим частоты кадров : Постоянный
Частота кадров : 23,976 кадра/сек
Цветовое пространство : YUV
Субдискретизация насыщенности : 4:2:0
Битовая глубина : 8 бит
Тип развёртки : Прогрессивная
Бит/(Пиксели*Кадры) : 0.132
Размер потока : 592 Мбайт (92%)
Default : Нет
Forced : Нет
Аудио
Идентификатор : 2
Формат : AC-3
Формат/Информация : Audio Coding 3
Коммерческое название : Dolby Digital
Идентификатор кодека : A_AC3
Продолжительность : 28 м. 16 с.
Вид битрейта : Постоянный
Битрейт : 192 Кбит/сек
Каналы : 2 канала
Channel layout : L R
Частота : 48,0 КГц
Частота кадров : 31,250 кадров/сек (1536 SPF)
Битовая глубина : 16 бит
Метод сжатия : С потерями
Размер потока : 38,8 Мбайт (6%)
ServiceKind/String : Complete Main
Default : Да
Forced : Нет
-

Скриншоты

-

Внимание! Раздача ведётся путём добавления новых серий

Внимание! Раздача ведётся путём добавления новых серий; при каждом добавлении создаётся новый торрент. Чтобы начать докачку новой серии, пользователям необходимо сделать следующее:
(1) остановить скачивание,
(2) удалить старый торрент у себя из клиента (старые серии удалять не надо),
(3) скачать новый торрент и запустить его у себя в клиенте вместо старого, при этом указать клиенту путь в старую папку куда и должно происходить скачивание новых серий.
Ваш клиент при этом должен произвести хеширование (проверку) старой папки (если не производит сам - помогите ему сделать это), и будет докачивать только те серии которых у вас ещё нет. Старые серии при этом не удаляются, а продолжают раздаваться!
Eсли вы уже удалили старые серии, то предотвратить повторную закачку старых серий можно, отжав галочку в соответствующих местах при запуске нового торрента. По возможности, желательно не удалять старые серии как можно дольше чтобы релизёр не столько продолжал раздавать старые серии, а смог сконцентрироваться на новых.
Предыдущие и альтернативные раздачи
[cybertorrent.ru].t57168.torrent 
Торрент: Зарегистрирован [ 2018-10-03 16:55 ] · 132D261405A301EA5C0ED2EF205B8926146B38B7

Скачать .torrent

Скачать

30 KB

Статус: проверено
Скачан: 0 раз
Размер: 5,55 GB
terms.php
[Профиль] [ЛС]
Показать сообщения:    
Ответить на тему

Текущее время: 17-Фев 08:18

Часовой пояс: UTC + 3



Вы не можете начинать темы
Вы не можете отвечать на сообщения
Вы не можете редактировать свои сообщения
Вы не можете удалять свои сообщения
Вы не можете голосовать в опросах
Вы не можете прикреплять файлы к сообщениям
Вы можете скачивать файлы